<?xml version="1.0" standalone="no"?>
<!DOCTYPE svg PUBLIC "-//W3C//DTD SVG 1.1//EN" "http://www.w3.org/Graphics/SVG/1.1/DTD/svg11.dtd">
<svg xmlns="http://www.w3.org/2000/svg">
<defs >
<font id="FingerPaint" horiz-adv-x="569" ><font-face
    font-family="Finger Paint"
    units-per-em="1000"
    panose-1="2 11 5 6 4 0 0 2 0 4"
    ascent="1097"
    descent="-377"
    alphabetic="0" />
<glyph unicode=" " glyph-name="space" horiz-adv-x="350" />
<glyph unicode="!" glyph-name="exclam" horiz-adv-x="312" d="M121 692Q125 692 128 688T131 680L130 670L141 669Q146 680 156 691T180 703Q189 703 194 697T203 683T206 665T207 649Q207 603 203 558T194 468T185 377T181 286Q181 275 185 266T189 245Q189
238 185 235T174 230Q170 244 166 258Q163 270 162 283Q162 254 169 229L153 225L157 212Q149 190 128 190Q115 190 108 201T98 230T94 266T93 302Q93 337 94 371Q96 402 96 433L93 383Q91 354 91 325Q91 294 91 264T95 203Q84 211 79 224T72 253T70 283V310L81
311Q79 322 78 332T77 354Q77 386 82 418T87 483Q87 491 87 498T85 513H79Q78 475 74 439Q71 408 70 376Q70 440 74 504Q78 572 83 642Q96 666 96 692Q99 691 104 691Q109 691 113 691T121 692ZM261 103L260 93Q242 97 224 99T186 104Q204 99 223 97T259 88L256
71H261L262 62Q262 51 259 40T251 17Q244 22 233 27T214 33Q211 33 207 32T201 29Q213 29 226 26T248 11Q247 6 241 0L228 6V17L219 14L202 17Q193 15 192 8L195 4Q203 8 211 8Q212 8 213 7H214Q205 6 200 2Q195 -2 187 -10L178 -8L175 -10Q167 -5 159 -1T143 8L146
11L137 17Q131 17 122 18T103 21T87 29T80 43Q80 55 90 68T114 94T145 114T172 122H206Q216 122 224 118T243 113L251 114L260 109L261 103ZM165 371Q167 387 169 403Q166 388 164 372Q162 358 162 343Q163 358 165 371ZM222 7L223 6L222 7Z" />
<glyph unicode="&quot;" glyph-name="quotedbl" horiz-adv-x="394" d="M156 664Q171 664 180 658T189 635Q189 603 185 572T176 509T167 450T163 397Q163 394 163 388T164 375Q164 366 162 359T151 352Q148 352 142 354Q146 366 146 380V386Q146 390 145 393Q144
383 142 374T137 356L121 360Q121 356 119 353T111 349Q97 349 88 357T67 371Q71 371 74 383T79 413T82 450T83 484V501Q82 494 81 473T78 430T71 391T61 373Q59 373 56 375T50 380Q53 387 54 394T55 410V420H66Q65 425 65 430T64 440Q64 460 67 480T71 520Q71
535 68 550H62Q62 507 59 467V539Q59 564 60 589T66 639Q72 647 77 655T83 674Q86 673 92 673T103 671T113 668T117 660Q117 656 115 652L125 650Q139 664 156 664ZM281 635Q289 642 298 644T317 646Q330 646 337 637T344 616Q344 605 340 576T332 513T323 450T319
410Q319 406 319 401T320 389Q320 381 318 374T306 367Q302 367 298 369Q300 377 300 384V400L293 372L277 376L269 367Q259 367 247 375T226 389Q229 391 231 405Q234 421 235 440T238 477T239 501Q237 488 236 469T233 433T228 404T220 391Q211 391 206 395Q209
400 210 407T211 421V429H222Q221 434 221 437V446Q221 464 224 482T227 519Q227 532 224 546H218Q218 524 216 503T213 459L212 510V519Q212 556 218 589T240 658Q243 657 248 656L259 654Q265 653 269 651T273 644Q273 641 271 637L281 635ZM303 432Q304 432
304 436T305 442L313 484Q310 473 307 461T303 438V432ZM147 422L153 459Q151 451 149 444Q147 434 147 426V422ZM213 454V445Q213 441 212 436L211 434L213 454ZM56 433Q56 438 56 442T58 451L56 433ZM56 433V427L55 425L56 433ZM59 465Q59 463 58 461V460Q58
463 59 465ZM225 389L224 390Q225 390 226 389H225Z" />
<glyph unicode="#" glyph-name="numbersign" horiz-adv-x="703" d="M640 455Q653 447 653 432Q653 421 647 414T633 400Q592 413 542 415T448 418L447 415Q492 412 536 410T625 394Q612 384 598 384Q577 384 556 387T513 391V402Q502 400 492 400H445Q442 370
435 339T418 278Q431 276 455 274T502 268T542 260T560 249L559 243Q485 247 412 258Q448 251 484 247T558 238L557 221L570 220Q581 211 581 198Q581 188 576 181T564 166Q523 178 481 182L397 190Q437 183 477 178T557 160Q545 150 532 150Q513 150 495 153T457
159L458 170Q452 169 447 169T435 168Q425 168 415 169T394 172L393 166L447 160L392 164Q389 149 387 123T381 72T373 29T361 10L355 11Q361 49 363 88Q365 126 370 163Q363 126 360 89Q357 51 350 13Q344 15 342 15Q332 15 332 -1L327 -10Q330 -9 336 -9Q344
-9 350 -13T356 -26L351 -36Q353 -38 353 -39Q353 -41 349 -42T340 -45T331 -46T326 -47Q307 -47 297 -32L295 -31Q290 -22 287 -13T278 6V33V40L272 17Q267 25 266 34T264 52Q264 75 266 99T274 146L285 145V156Q285 162 286 168L277 164V168H237Q236 159 233
134T225 81T212 33T194 12L193 15Q193 36 199 56T205 97V103Q201 80 195 58Q190 35 188 12L179 13L172 8Q172 -4 180 -13T189 -28Q189 -39 181 -43T164 -48Q138 -48 129 -28T119 14Q119 47 128 79T139 144Q133 109 122 74T111 3L112 -3Q107 7 104 17T100 39Q100
66 107 92T119 146L130 145V170Q119 173 109 174T90 178T76 185T71 203Q71 211 76 213T89 216H95V227Q83 232 72 241T60 265Q60 275 67 281T85 289T106 292T124 293Q133 293 138 304T145 329T148 358T150 379L130 378Q114 384 98 386T65 388Q66 390 66 394Q66 398
65 402T64 410Q64 420 71 421T85 423H91V434Q78 438 64 447T50 472Q50 483 60 489T84 498T111 501T133 502Q158 502 163 515T168 550Q168 579 175 607T182 665Q184 664 188 664Q192 664 196 665T204 666Q212 666 215 660T218 646L217 635L227 634Q228 640 231 648T240
664T251 677T265 683Q275 683 281 675T289 654T292 630T293 610Q293 585 291 561T287 511Q301 512 313 512T340 513Q343 547 354 578T369 644L377 641Q379 641 382 641T387 642Q394 642 398 639T403 627Q403 621 401 611L412 610Q414 616 418 623T427 636T438 647T452
652Q460 652 465 647T472 635T475 620T476 606Q476 581 473 556T463 507Q479 506 506 505T561 502T608 495T628 483L627 477Q585 481 543 483L459 487Q501 482 542 480T626 472L625 455H640ZM277 385Q276 376 275 364T272 338T267 312T261 293Q266 293 270 293T279
294Q284 294 288 294T298 293L316 385H277ZM309 292Q315 316 320 340T328 388Q323 387 319 375T311 346T305 314T302 293L309 292ZM143 293Q149 294 152 305T158 331T161 360T163 379Q157 379 154 367T148 341T145 312T143 293ZM330 402Q321 401 307 399T283 395Q285
393 285 390L284 389L329 394L330 402ZM269 171L279 180H259Q245 180 240 179L241 176L240 173L269 171ZM287 176V181Q279 181 279 172L287 176Z" />
<glyph unicode="$" glyph-name="dollar" horiz-adv-x="639" d="M214 156Q176 153 145 153H125Q116 153 106 154Q130 162 155 165T205 173Q208 233 211 291T221 410Q189 421 159 438T104 479T65 533T50 601Q50 648 71 679T125 729T199 756T279 764Q286 764 292
775T304 800T313 827T319 847Q323 843 328 843T337 842T345 839T349 829Q349 821 347 813T341 797L351 794Q354 800 359 809T371 825T386 838T402 844Q413 844 416 834T419 815Q419 798 416 783T408 751Q426 745 442 741T474 731T505 717T535 697Q530 697 529 694T526
686T524 679T517 675Q498 683 480 690T442 703L440 693Q449 690 459 684T480 670T496 653T503 632Q503 626 499 621T489 614Q457 631 432 636T381 646Q373 614 368 577T358 508Q363 507 368 507T379 506Q420 506 458 484T525 429T571 354T589 273Q589 222 563 186T496
126T407 92T316 81Q316 57 321 34T327 -14Q327 -21 324 -28T313 -35Q308 -13 304 7Q301 27 299 47Q299 42 300 30Q301 17 302 3T305 -22T307 -35L299 -34L290 -37L296 -61Q296 -64 296 -70T294 -83T290 -93T282 -98Q265 -98 256 -90T242 -67T236 -37T234 -3V33Q234
46 233 54T227 62Q227 32 228 3T232 -57Q214 -32 211 -2T207 58Q199 56 187 55T160 54Q145 54 132 56T113 66Q115 70 129 71T161 73T192 75T207 81Q184 79 162 78T117 76L121 86L52 101L70 118L54 136L85 148Q92 146 109 145T146 144Q166 144 183 145T205 149L214
156ZM482 270Q482 285 473 306T450 347T419 381T386 395Q375 395 366 395T345 397L343 388Q365 388 386 382Q374 382 364 382T343 384Q333 336 329 289T321 193Q340 198 359 202T397 211L407 203Q419 207 432 212T456 225T475 244T482 270ZM188 635Q185 627 179
619T172 605Q172 595 179 585T196 566T217 550T237 539Q241 564 246 593T256 648L188 635ZM225 409Q219 349 215 291T206 173L214 174Q214 233 220 290T234 406L225 409ZM474 275Q474 285 468 299T452 327T430 354T405 375Q435 361 455 335T476 271Q476 252 462
238Q466 248 470 256T474 275ZM500 270Q500 289 491 310T468 351T436 384T399 405Q418 398 435 384T466 350T488 310T496 268Q496 251 489 239T468 216Q485 221 492 237T500 270ZM229 176Q234 226 236 275Q238 323 242 370Q235 323 232 275Q230 226 227 176H229ZM157
446Q172 437 195 428T235 412L236 420Q219 425 196 433T158 451L157 446ZM299 189Q308 220 308 252Q309 282 313 312Q307 282 303 253Q299 221 299 189ZM317 98Q322 97 325 97T332 96Q345 96 355 99T379 107L317 98ZM542 196Q534 184 519 169T492 145Q505 152 516
161T538 182L542 196ZM564 309Q567 289 567 273Q567 256 564 240T552 205Q561 219 565 236T569 270Q569 287 564 309ZM320 170Q339 173 357 177T393 187L320 172V170Z" />
<glyph unicode="%" glyph-name="percent" horiz-adv-x="824" d="M730 590Q730 544 708 501T650 416T569 337T478 262T390 194T319 131Q311 123 296 105T263 69T231 35T207 19L201 25Q239 68 275 111T358 188Q338 177 317 158T274 117T234 72T200 31L190 43Q185
37 174 27T151 6T127 -12T108 -20Q104 -20 102 -16T99 -9Q99 26 133 69T219 160T335 258T456 358T561 455T626 544H623Q594 495 553 451T465 367T369 290T276 218Q235 186 200 149T129 75Q154 121 187 157T259 226T338 290T416 354L423 346Q474 391 521 439T607
545Q538 545 476 543T353 535Q392 473 392 403Q392 389 391 377T388 350Q349 348 311 344T233 339Q202 339 170 345T111 367T67 407T50 469Q50 509 68 542L81 535Q83 556 87 577T101 615T126 643T168 654Q183 654 197 649T226 644Q247 644 268 648T310 656Q404
668 501 668Q557 668 612 665T723 656Q725 639 727 623T730 590ZM770 95Q770 125 758 154Q764 141 769 127T774 99Q774 63 756 36T709 -9T647 -37T581 -46Q551 -46 524 -39T475 -17T442 22T429 79Q429 123 447 157T494 214T562 248T641 260L642 240Q674 232 702
216T749 171L740 165Q763 133 763 94Q763 58 745 34T700 -4T640 -25T578 -32Q551 -32 525 -28T476 -6L472 -10Q493 -29 521 -35T577 -41Q607 -41 640 -33T703 -9T751 33T770 95ZM267 444Q263 451 256 461T240 481T224 499T208 514Q199 512 191 511T175 507T163
498T158 480Q158 478 159 476T161 471L171 460Q175 456 183 453T201 448T220 444T234 443H250Q259 443 267 444ZM552 84Q561 79 570 75T594 71Q610 71 628 78T657 97Q657 117 644 123T615 129Q611 129 608 129T600 128L590 131Q579 120 568 110T552 84ZM711 606Q711
573 694 536T651 464T598 398T547 344Q574 367 603 394T656 452T696 518T712 592L711 606ZM350 539Q397 544 443 546T536 549H567Q583 549 599 548L603 556Q586 557 568 557H533Q485 557 439 555T345 546L350 539ZM111 431Q106 438 103 446T100 462Q100 470 102
476T106 490L87 486L86 465V463Q86 452 91 444T102 424L111 431ZM733 155Q727 167 715 179T688 202T657 218T627 224Q622 224 616 223T605 221V220Q641 220 677 204T733 155ZM750 100Q750 108 748 116T743 132Q745 123 746 116T748 100Q748 75 737 55T706 21T664
-2T618 -15Q641 -12 664 -4T707 18T738 52T750 100ZM534 460Q567 494 593 535Q586 514 568 495T534 460ZM483 411Q507 433 531 457Q508 431 484 409Q464 392 442 374Q464 393 483 411ZM624 148Q634 141 645 138T664 127Q656 135 647 139T628 150L624 148ZM573 570Q584
570 595 570T617 569H634L635 570L563 571Q568 571 573 570ZM679 99Q679 103 677 109V102Q677 92 673 86T663 74Q669 78 674 83T679 99ZM602 548Q607 548 608 549T612 556Q604 556 602 548ZM628 547L631 555Q626 555 624 548L628 547ZM442 374Q438 371 434 368Q438
371 442 374Z" />
<glyph unicode="&amp;" glyph-name="ampersand" horiz-adv-x="817" d="M377 356Q410 319 447 283T510 202Q568 245 604 271T660 311T689 330T702 335Q705 335 707 329Q665 290 617 259T521 189L522 187Q568 224 616 254T707 322Q707 316 708 313T717 309Q735 327
742 332T762 337Q766 337 771 336T777 323Q777 300 765 282T734 248T691 218T644 188L581 146Q579 144 573 140T566 133L568 131Q619 164 671 198T773 277Q758 257 736 235T688 192T635 152T581 117Q600 97 618 78T656 40Q651 40 649 37T646 30T643 23T638 19Q633
19 613 33T555 91L547 84Q585 36 608 2T651 -51Q655 -56 655 -58T656 -62Q656 -67 650 -67H646Q635 -67 618 -58T579 -32T534 6T488 51Q459 32 432 17T368 -11L359 -5Q342 -10 326 -16T298 -22Q275 -26 257 -28T221 -30Q180 -30 155 -22T112 -2T85 28T65 63Q60
80 59 91T58 114Q58 154 73 188T110 252T159 306T209 351L204 357L168 324Q154 311 134 291T96 245T65 187T52 116Q52 106 54 92T61 57Q76 28 93 10T131 -19T175 -34T225 -38Q242 -38 265 -35T312 -27V-29Q304 -30 294 -32T271 -35T248 -38T227 -39Q159 -39 118
-15T60 55Q54 66 52 81T50 112Q50 157 65 193T104 259T153 313T201 360L190 372Q167 394 153 414T128 453T111 493T95 538L91 574Q91 613 103 633T139 677Q152 684 165 686T193 688Q211 688 230 686T271 683Q299 669 328 663T382 647T428 619T459 562Q460 551 460
544V532Q460 506 453 482T434 436T407 394T377 356ZM169 96Q169 89 179 84T218 76Q231 76 246 78T289 83Q303 83 319 88T351 100T383 117T411 134Q399 147 384 165T353 202T319 240T285 273Q261 252 240 232T202 192T176 153T166 114Q166 110 167 107T168 99L169
96ZM226 566Q219 566 216 567Q217 532 239 502T290 444Q290 446 292 446Q311 469 321 488T335 531Q328 535 304 542T241 561Q237 562 232 563T226 566ZM225 -17Q292 -17 353 5T473 66L472 68Q413 29 351 8T206 -14Q204 -14 185 -12T144 0T102 26Q95 32 90 40Q106
16 128 4Q152 -9 178 -13T225 -17ZM339 546Q339 543 338 543L334 545Q336 543 339 538T342 530Q342 528 341 528Q340 528 339 529Q339 508 323 482Q321 479 317 473T307 461T297 449T293 441L299 435Q322 462 335 486T348 538L339 546ZM148 90Q148 79 155 73T173
62T197 56T223 54Q268 54 306 64T380 94Q336 73 275 61Q262 59 250 57T225 55Q215 55 202 56T178 61T158 71T150 88L149 93Q146 102 146 110Q146 148 170 183T235 253Q218 239 203 224T175 191T154 156T145 119V107Q145 101 147 94L148 90ZM82 73Q77 89 77 100T76
120Q76 154 89 185T124 244T170 296T219 341L218 342Q202 327 178 305T130 254T90 190T73 112Q73 68 89 42Q90 41 90 40Q82 54 82 73ZM331 546Q314 554 296 557T259 566Q262 564 262 562Q262 560 261 560Q281 555 300 550T335 536V540L331 546Z" />
<glyph unicode="&apos;" glyph-name="quotesingle" horiz-adv-x="238" d="M50 456Q53 463 54 470T55 486H65Q64 491 64 500Q64 518 67 534T70 569Q70 575 70 581T67 593H62Q62 570 61 542T55 492V545Q55 587 59 623T84 697Q87 696 92 695T102 693T112 689T116
682Q116 680 114 676L125 674Q139 683 152 683Q166 683 177 677T188 654Q188 613 180 572T169 493L166 484Q165 481 164 477T163 470Q163 467 163 462T164 452Q164 443 161 435T150 427Q148 427 146 428T141 430Q146 448 147 468Q145 458 142 449T136 432L121 437Q119
429 112 429Q106 429 101 432T91 440T82 448T72 452Q76 458 78 472T81 502T82 533T83 554Q82 549 81 533T78 499T72 467T64 453L50 456ZM153 525Q151 516 150 508T147 491L148 493V492L153 525ZM68 454L72 452L70 451V452L68 454Z" />
<glyph unicode="(" glyph-name="parenleft" horiz-adv-x="464" d="M415 -14H419Q425 -14 433 -14T447 -17T459 -23T464 -35Q464 -49 452 -56T429 -68Q344 -51 283 -33T181 21T115 114T79 268Q86 184 108 125T171 25T271 -38T413 -74Q391 -82 369 -82Q318 -82 266
-61T176 -8L183 0Q144 27 121 69T85 159T68 257T64 351Q64 376 65 401T69 451L64 453Q55 397 55 341Q55 304 60 259T78 167T108 80Q125 42 149 16Q121 45 103 83Q84 123 72 167T55 257T50 344Q50 440 80 533T169 703Q195 738 229 764T298 816Q301 811 308 805T315
793Q315 789 311 784T301 773T290 764T281 756L288 748Q302 757 318 764T352 771Q358 771 365 769T372 758Q372 748 358 731T321 689T273 629T225 548T189 443T174 311Q174 267 181 223T205 138L207 134L206 135Q212 109 230 92T270 63T318 44T364 32T398 23T412
13L411 9Q365 12 320 23T236 62Q272 33 317 21T408 4L405 -7L415 -14ZM172 169Q181 132 197 104Q195 110 193 116T187 127L188 126Q176 152 170 181Q164 209 161 237Q163 206 172 169Z" />
<glyph unicode=")" glyph-name="parenright" horiz-adv-x="395" d="M54 822Q104 822 145 804T219 753T275 680T314 593T337 500T345 411Q345 371 340 323T323 225T296 131T257 51Q248 37 226 10T177 -44T124 -93T83 -116L74 -108Q126 -69 164 -30T231 55T279 152T311
268Q296 204 278 153T232 57T165 -26T72 -103L63 -89Q57 -98 44 -105T19 -112Q0 -112 0 -95Q0 -86 3 -77T12 -60Q57 -30 92 -1T154 63T199 139T228 236Q217 185 200 145T158 71T98 9T19 -45Q32 -24 50 -7L86 25Q104 42 121 59T152 97L161 91Q198 160 215 239T233
397Q233 419 231 441T224 484Q224 481 222 481Q219 481 219 482Q221 460 222 438Q224 416 224 392Q224 320 210 248Q197 177 165 121Q180 150 191 183Q202 218 208 255T217 328T220 397Q220 447 211 500T179 599T118 677T20 717Q21 720 21 726V736Q21 742 24 746T38
750Q46 750 54 748T71 744L73 754Q67 756 55 761T31 773T9 787T0 803Q0 810 6 814T22 819T40 821T54 822ZM165 121L164 119L165 121Z" />
<glyph unicode="*" glyph-name="asterisk" horiz-adv-x="724" d="M628 608Q600 600 583 594T565 583Q565 578 574 573Q542 563 510 556T445 542L451 539Q483 545 515 552T579 570Q583 566 583 565Q583 560 550 548T455 523Q468 517 485 508T514 491L636 412L485
385Q499 337 506 314T514 277Q514 275 513 272T507 269Q499 269 489 278T466 304T441 342T416 390Q411 391 401 395Q421 349 428 328T435 297Q435 290 426 290H419Q410 290 409 283Q393 320 378 356T347 430L339 437Q334 419 322 397T291 355L192 249L188 394V406Q188
436 195 463Q190 464 185 464T175 465L208 466Q208 468 208 469T209 471Q177 475 139 476T68 482Q67 481 65 481Q61 481 58 482T51 484L57 586L67 588Q69 588 72 588T89 587Q96 587 105 587T127 588L126 599Q158 601 189 603T253 607Q255 630 256 650T258 693V722Q258
737 257 757H379L384 750L391 749Q391 738 391 724T393 693T397 659T405 627Q453 637 493 646T565 658Q528 644 490 631T410 610L412 604Q440 609 468 618T525 637T583 652T641 659Q656 659 665 657T674 648Q674 642 664 632T628 608ZM58 574L53 500Q58 525 60
539T63 561T64 571T66 574H58ZM198 418Q198 429 201 440Q203 444 203 450T206 462Q204 463 200 463Q196 452 195 443T192 422L198 418ZM176 580Q180 580 183 579Q187 579 198 580T221 581T241 583T250 587Q241 586 227 585T200 583T176 581L166 580H176ZM111 471Q138
469 168 466Q137 467 109 470T51 477Q84 473 111 471ZM168 487L202 485Q203 486 203 488Q198 489 192 489H182Q176 489 170 489T159 487H168ZM214 484Q214 485 214 486T215 488H211Q207 488 207 485Q209 484 214 484Z" />
<glyph unicode="+" glyph-name="plus" horiz-adv-x="549" d="M204 278Q181 278 157 279T110 280Q89 291 62 291Q63 293 63 297Q63 302 62 306T61 315Q61 327 74 327L82 326V337Q71 342 61 351T50 375Q50 385 56 391T72 400T92 403T110 404Q129 404 147 402T185
400Q189 400 193 400T201 401Q198 467 198 532Q204 544 206 557T208 583L215 582Q219 582 222 582T230 583Q236 583 240 581T244 570L243 562H254Q259 574 269 584T293 594Q303 594 309 581T319 549T324 505T326 459T327 418V393Q358 389 388 383T449 376Q455 376
462 377T475 378Q484 378 490 374T497 358Q457 360 419 361Q392 362 365 366Q392 362 419 360Q457 357 496 352Q495 349 495 344Q495 338 496 336H508Q519 327 519 312Q519 295 505 281Q497 284 472 287T416 294T359 299T322 301Q367 296 411 291T499 274Q494 269
488 266T475 263Q458 263 442 265T408 270V281Q402 280 396 280T384 279Q368 279 353 281T320 285Q325 280 333 277Q340 275 346 273L320 275Q319 255 316 234T313 193Q313 188 314 179T316 160Q316 151 313 145T301 138Q298 155 297 172T296 207L292 138Q290 138
288 138T284 139Q282 139 280 139T276 138V125Q266 112 252 112Q243 112 236 116T221 125Q224 132 226 147T228 180T229 215T230 244V276Q226 240 225 204T215 131Q210 136 206 141T202 155Q202 172 203 186T205 218L215 223Q213 234 212 243T211 264Q211 267 211
270T212 278Q205 268 205 258T204 236V278ZM204 461Q205 459 205 450T205 430T207 411T211 402L210 461H204ZM354 368L365 366L354 368Z" />
<glyph unicode="," glyph-name="comma" horiz-adv-x="297" d="M80 -113Q100 -90 123 -71T172 -36Q146 -50 122 -69T77 -109L63 -100L54 -106Q40 -106 29 -97T14 -74Q44 -52 73 -26T128 28Q99 3 71 -20T11 -66L10 -57Q10 -51 15 -44T27 -30T41 -18T53 -8L61 -16Q68
-6 80 4L104 25Q116 36 125 46T137 68L132 71Q122 47 98 28T55 -6Q71 9 88 25T120 59T144 97T153 145Q159 147 166 149T180 151Q189 151 189 139H199Q206 150 216 158T240 166Q256 166 261 151T267 122Q267 102 262 79T248 34T226 -7T197 -39Q191 -43 176 -56T144
-83T113 -109T95 -120Q92 -120 87 -118T80 -113Z" />
<glyph unicode="-" glyph-name="hyphen" horiz-adv-x="416" d="M169 254Q177 254 185 254T201 255Q225 255 248 253T296 248Q263 251 229 251Q196 251 163 250T95 248H83Q75 253 69 254T57 258T50 265T47 283Q47 288 49 291T56 295L62 305Q51 311 46 321T40 343Q40
360 54 366T85 372Q96 372 106 371T127 370Q143 370 158 372T188 375Q197 375 213 374T248 371T285 365T318 356Q325 356 332 357T346 358Q356 358 358 353T360 341V338Q330 338 300 339Q274 341 249 346Q273 340 300 339Q331 337 360 332Q358 324 358 320Q358
319 358 318T359 316L368 314Q376 305 376 292Q376 276 366 261L362 263Q337 271 303 274T247 277Q239 277 231 277T215 276Q252 272 289 270T362 254Q353 243 345 243Q333 245 325 246T305 248L298 259Q293 258 288 258T277 257Q257 257 239 260T201 264Q186 264
168 259Q169 258 169 256V254ZM244 348Q246 347 249 346Q247 347 244 348Z" />
<glyph unicode="." glyph-name="period" horiz-adv-x="344" d="M69 35Q94 50 115 74T159 121Q145 112 134 101L113 80Q102 69 90 59T60 40Q55 45 53 48T50 56Q50 61 51 62L83 94Q83 90 88 88T96 85Q101 100 111 109T132 125T153 142T168 166Q167 167 167 168Q165
170 164 170L89 100Q96 108 112 127T145 166T176 201T195 216L196 215Q204 212 218 210T240 207Q247 207 256 210Q256 204 262 196T275 180T288 165T294 153Q294 146 289 146H286Q286 137 287 115T289 63Q289 47 279 35T256 14T230 -1T209 -10Q203 -10 204 -16T200
-23H195Q192 -23 186 -21T173 -14Q174 -11 183 1T204 28T225 55T238 71Q233 68 222 57T200 32T178 7T164 -8Q151 -1 146 -1L141 -5Q130 -5 118 -1T95 10T77 22T69 31V35Z" />
<glyph unicode="/" glyph-name="slash" horiz-adv-x="494" d="M426 667Q436 667 440 660T444 644Q444 609 424 561T372 456T304 339T237 219T185 104T164 4Q164 -1 164 -9T165 -28Q165 -44 162 -58T148 -74L144 -67Q145 -34 147 -1Q149 30 154 60Q140 -6 140 -73H123L125
-95Q123 -103 118 -112T103 -122Q92 -122 84 -113T70 -96Q70 12 95 105T169 295Q121 207 95 112T62 -83Q50 -61 50 -35Q50 -2 53 28T65 91L78 93Q84 136 99 176T134 255T173 332T211 410L205 412Q165 336 127 260Q92 188 70 108Q84 168 108 225Q134 286 164 345T227
461T290 577Q304 603 319 626T346 676Q352 673 363 670T375 658Q375 652 372 644T365 630L375 625Q383 637 396 652T426 667ZM68 100Q69 104 70 108Q69 104 68 100Z" />
<glyph unicode="0" glyph-name="zero" horiz-adv-x="566" d="M152 633Q218 633 279 622T386 581T460 501T488 374Q488 300 472 226Q457 157 424 96Q457 154 473 217Q491 286 491 358Q491 420 479 464T441 540T373 592T272 627Q249 632 227 637T179 642Q203 649
231 649Q270 649 310 639T386 610T450 561T491 492L479 489Q493 460 499 429T505 366Q505 327 499 281T478 187T442 96T390 19T320 -35T231 -56Q226 -56 220 -56T209 -54L212 -60Q218 -61 224 -61T237 -62Q286 -62 325 -42T395 13T448 90T484 181T505 276T512 363Q512
413 500 461Q507 435 511 409T516 356Q516 313 509 265T488 171T450 81T395 6T321 -46T227 -66Q187 -66 158 -48T110 -1T78 66T60 143T52 220T50 287Q50 353 68 415T125 531Q126 525 130 524T137 521T144 519T147 512Q147 509 143 500T134 479T125 457T119 444L128
441Q132 448 138 458T153 477T171 492T190 498Q203 498 206 493T209 477Q209 465 204 443T191 392T179 332T173 273Q173 264 174 244T177 198T184 147T196 98T213 62T238 48Q265 48 287 65T327 110T358 173T380 242T393 308T398 359Q398 396 394 424T378 474T341
508T278 528Q274 529 260 531T230 536T202 544T189 554Q189 557 191 561Q206 561 226 559T267 553T309 542Q322 538 334 533Q323 538 311 542Q291 549 270 554T230 561T194 564L190 582H185Q168 582 152 576T119 570Q115 570 111 572T107 580Q107 587 112 595T123
611T138 624T152 633ZM410 274Q421 318 425 360Q426 365 426 370T427 381Q427 407 418 431T398 477Q419 424 419 366Q419 321 409 276Q399 232 384 191Q400 232 410 274Z" />
<glyph unicode="1" glyph-name="one" horiz-adv-x="442" d="M247 -15Q257 27 264 78T273 172Q271 154 269 131T264 85T256 39T244 0Q239 11 239 23T238 48Q238 63 240 83T244 125T249 168T253 204L261 213Q261 216 261 218T260 222Q260 225 260 228T261 238Q261
269 264 302T272 369T280 436T284 501L274 493Q269 445 264 393Q260 344 257 297L259 390Q260 411 264 439T271 490Q263 485 249 476T216 455T178 431T142 407T113 387T98 374Q94 382 85 384T74 396Q77 404 83 411T95 425L89 431Q83 428 74 423T56 413T37 405T20
401Q10 405 10 413Q10 438 36 462T103 513T194 570T292 639L380 603Q385 590 388 569T391 534V509Q391 487 391 466T385 423Q379 392 375 348T368 256T363 160T356 74T346 13T331 -11Q329 -11 325 -9Q330 11 335 33T340 75V99Q337 73 333 47Q329 20 322 -6Q318
-4 312 -4Q304 -4 302 -11T297 -26T290 -42T276 -49Q263 -49 258 -37T247 -15ZM347 286Q345 239 343 189Q348 239 351 288Q354 336 360 384Q349 333 347 286ZM276 216Q280 245 281 273T284 328T286 381Q286 397 288 413Q282 369 280 325Q278 271 276 216Z" />
<glyph unicode="2" glyph-name="two" horiz-adv-x="455" d="M403 11Q403 5 398 0T387 -9T372 -16L360 -21Q351 -17 339 -15T314 -11T287 -10T264 -9Q217 -9 171 -11T77 -16Q88 -17 98 -17H120Q149 -17 178 -16T236 -15Q262 -15 287 -17T339 -24Q324 -29 293 -31T227
-35T160 -37T110 -38L102 -27Q100 -27 99 -27T95 -28Q91 -28 87 -28T78 -27H71Q68 -27 65 -29Q56 -29 48 -28T30 -27L10 72L33 84Q72 110 109 137T179 197T238 267T282 351L279 357Q291 381 296 401T301 443Q301 478 285 490T244 502Q210 502 185 484T143 440Q138
448 129 450T119 461Q119 472 130 483T149 500L143 509Q139 506 127 499T102 483T78 468T62 461Q50 461 50 474Q50 501 69 526T115 571T175 603T234 615Q274 615 308 606T369 577T410 526T425 450Q425 395 404 340T347 236T268 146T177 76Q187 77 201 78T232 80T262
81T287 82Q301 82 317 79T344 66L342 60Q313 63 285 63Q272 63 255 63T219 61T184 59T153 57V56Q163 56 178 56T210 57T242 58T268 59Q286 59 303 58T339 54Q336 49 336 46Q336 38 346 36T369 32T392 25T403 11ZM38 94Q64 110 96 137T161 198T223 270T272 346Q257
313 231 275T172 202T104 137T38 94ZM204 204Q169 169 132 137T53 78L58 77Q100 103 135 136T204 204ZM169 89Q188 98 207 120L148 79Q156 83 169 89ZM30 -33Q32 -33 41 -33T60 -35T78 -37T89 -40L31 -36L30 -33ZM21 57L45 69L44 72Q38 67 31 65T18 60V57H21Z"
/>
<glyph unicode="3" glyph-name="three" horiz-adv-x="482" d="M21 25Q28 25 35 25T49 24Q70 9 96 4T148 -2Q166 -2 198 3T262 20T316 50T339 92Q339 110 327 129T297 166T260 199Q243 212 231 223Q242 212 259 198Q278 183 294 165T323 128T335 90Q335 67 314
51T263 24T204 8T157 3Q132 3 108 7T61 24Q67 25 73 25T86 26Q109 26 128 25T167 23Q188 23 209 27T255 43L271 39Q288 49 303 62T319 96Q319 113 300 136T256 183T206 226T167 255L175 310Q185 315 199 318T228 324T256 334T277 352L271 355Q270 352 257 348T226
338T194 327T172 319L173 317Q173 315 170 315L169 316L160 248Q175 234 201 215T252 174T297 132T316 93Q316 86 311 80T299 68T283 57Q277 53 272 51Q276 53 282 57Q290 62 297 67T309 79T314 92Q314 111 294 133T247 176T194 215T157 246Q160 265 160 274T161
299Q164 300 164 309V321Q192 333 216 340T260 357T296 386T328 438Q328 468 300 485T227 503Q213 503 198 499T166 490T135 478T106 468Q105 475 101 480T96 493Q96 499 103 503T119 511T138 516T151 519L148 531Q142 529 126 528T92 526Q75 526 61 529T47 543Q47
557 73 569T132 591T196 606T237 612Q272 612 310 600T379 564T431 510T451 439V435Q450 406 435 382T397 337T350 302T304 278Q331 264 354 244T393 199T419 149T429 96Q429 39 399 3T323 -53T225 -82T127 -90Q121 -90 106 -89T74 -84T45 -74T32 -59L34 -54Q87
-73 145 -73Q182 -73 218 -66T289 -45Q255 -56 220 -63T148 -70Q90 -70 40 -51L47 -40Q41 -37 33 -32T18 -19T5 -5T0 10Q0 18 7 21T21 25ZM382 20Q407 49 407 97Q407 134 389 165Q371 195 346 220Q372 192 387 157Q403 122 403 81Q403 64 395 48T374 17T346 -10Q334
-20 324 -26Q359 -6 382 20ZM321 -28Q320 -29 319 -29Q320 -28 321 -28Z" />
<glyph unicode="4" glyph-name="four" horiz-adv-x="525" d="M441 197Q441 202 442 211T445 230T449 249Q450 256 451 262Q449 246 447 229Q446 211 446 195H466Q472 191 478 185T485 171Q485 160 477 153T460 138Q458 139 453 139T441 141T428 142T420 143V134L451
132Q445 127 441 111T434 77T431 40T429 15L427 -21Q413 -44 409 -69Q405 -67 399 -67T388 -65T378 -62T374 -52Q374 -48 376 -42L367 -39Q361 -49 351 -56T329 -63Q312 -63 308 -51T303 -24Q303 2 309 28T316 81L315 123L309 124L304 135Q285 133 262 131T213
129Q185 129 158 133T110 148T75 178T61 228Q61 250 65 272T71 316H65Q62 295 57 274T52 231Q52 213 59 198T67 168L73 165Q91 152 103 145T125 133T144 128T166 126Q175 126 187 126T216 127L224 120Q197 120 166 122T108 134T63 165T45 225Q45 253 53 280T61
333Q61 367 65 398T76 460T88 520T100 582L122 583Q129 581 131 575T134 563L133 549H142Q144 555 148 563T157 580T168 593T183 599Q192 599 197 590T204 570T206 547T207 529Q207 502 204 475T196 421T188 367T184 312Q176 298 175 279T173 244Q177 242 192 242Q201
242 210 242T223 243L229 240Q255 240 281 239T333 235Q334 241 336 263T343 308T353 349T366 368Q369 368 373 366L366 316Q372 342 379 366L394 363Q394 372 400 377T415 383Q425 383 434 378T451 366Q445 356 440 336T431 294T424 251T419 218L423 217Q428 249
435 289T457 360Q459 354 462 349T466 336Q466 322 461 305T454 273L442 276Q442 270 441 260T439 239T437 217T435 201L441 197ZM316 147Q292 147 268 150T220 153H151Q162 151 173 151T195 150H217L220 147L316 145V147ZM428 122Q428 119 427 112T424 96T421
80T420 68V67Q420 68 422 68Q424 68 424 67H426Q426 70 427 78T431 96T435 113T437 125L428 122ZM232 219Q240 215 256 214T290 213H318Q332 213 341 214L232 219ZM165 226Q182 222 198 222T232 219Q217 223 200 224T166 226H165ZM231 126H245Q256 126 265 126T285
124L237 121L231 126ZM114 159Q123 157 135 154Q122 159 114 160T95 170Q105 161 114 159ZM354 233Q357 241 357 247V256L353 233H354Z" />
<glyph unicode="5" glyph-name="five" horiz-adv-x="561" d="M186 577L207 581Q228 581 248 582T291 585Q280 585 267 585T240 584H206Q196 582 192 582Q180 582 176 590L182 602Q204 602 213 603T230 605L233 593Q250 598 267 599T302 600T336 601T371 608V614Q303
605 236 605Q292 610 348 618Q405 626 464 626Q480 614 503 614L502 609Q502 605 502 602T503 593Q503 586 501 582T488 578V569Q498 563 504 553T511 530Q511 519 501 513T474 502T439 497T400 496Q382 496 367 496T343 497Q318 497 292 496T239 495Q222 495 215
485T206 460T203 428T200 398Q212 389 239 387T298 380T365 367T428 338T475 281T494 187Q494 131 469 84T402 4T309 -48T205 -67Q187 -67 156 -63T95 -48T42 -21T20 20Q20 28 29 32Q51 -6 91 -26Q131 -45 174 -47Q132 -44 95 -25Q57 -5 38 34L50 38Q45 45 41 52T35
68Q36 76 40 86T55 97Q75 97 83 85T103 58T135 31T199 18Q227 18 260 29T323 59T373 105T395 164Q390 133 371 108T325 64T266 35T205 25Q191 25 175 26T143 33T115 48T98 74Q112 71 123 66T145 57T168 49T197 45H212Q219 45 227 47V38Q254 44 281 56T332 87T369
130T384 186Q384 209 373 230T342 262L339 256Q355 248 365 230T376 194Q376 143 347 110Q323 82 286 65Q298 71 309 78Q327 90 340 106T362 141T371 181Q371 217 348 238T293 271T224 287T161 295Q142 297 127 299T100 309T83 329T77 365Q77 381 80 407T89 461T101
515T113 557Q116 552 121 552T131 552T139 549T143 538Q143 528 140 519T134 500L143 497Q148 506 152 514T163 531Q159 538 159 545Q159 556 165 564T173 584L186 577ZM445 80Q406 29 349 -2T227 -43Q293 -35 350 -6T445 80ZM346 519Q335 520 321 520H281Q287
517 309 517Q325 517 341 518Q350 518 356 519Q353 519 346 519ZM212 510L217 515H173L212 510ZM280 62Q283 64 286 65Q283 64 280 62ZM276 61Q277 61 278 62Q277 61 276 61Z" />
<glyph unicode="6" glyph-name="six" horiz-adv-x="570" d="M506 185L507 204Q493 242 468 269T410 318T341 354T269 381L285 382Q319 382 354 367T421 329T479 277T521 219L514 192L510 176Q512 167 513 158T514 139Q514 89 482 51L484 49Q501 66 509 91T517
140Q517 150 517 158T514 176Q519 181 521 191T524 210Q532 193 536 175T540 139Q540 95 522 62T475 6T408 -28T331 -40Q271 -40 220 -21T131 34T72 118T50 226Q50 289 74 348T139 460T230 555T336 627Q344 620 346 614T348 603Q348 598 342 592T328 579T311 568T300
561L306 552Q323 561 341 567T378 573Q382 573 392 570T402 560Q373 538 341 510T279 453T228 400Q208 377 201 363Q209 371 223 374T248 381Q286 368 325 353T398 316T460 265T503 193L506 185ZM173 220Q173 188 187 163T224 118T276 89T337 79Q350 79 365 82T394
92T415 111T424 140Q424 167 412 186T380 220T338 244T297 262T265 278T252 294Q252 296 254 300Q303 286 349 261Q395 237 426 198Q397 238 352 263Q307 288 260 303Q263 307 263 312Q263 319 254 322T232 330T210 339T198 357Q185 329 179 290T173 220ZM341 -30Q300
-30 260 -21T186 6T124 52T80 118L77 112Q93 73 120 45T182 -1T257 -27T338 -36Q381 -36 417 -22T485 21L488 30Q476 15 459 5Q441 -6 421 -14T381 -26T341 -30ZM475 45Q444 13 409 0T329 -14Q310 -14 291 -11Q273 -9 255 -3Q290 -17 332 -17Q374 -17 412 -3T479
42L475 45ZM451 128L446 143Q445 120 435 104T410 78T375 64T335 60L346 59Q397 59 430 95L451 128Z" />
<glyph unicode="7" glyph-name="seven" horiz-adv-x="573" d="M77 -86Q92 -35 113 15T163 113Q134 68 110 20T68 -83Q68 -55 75 -25T95 34T124 91T159 146L173 148Q195 187 222 223T280 291T341 354T401 412Q398 412 395 412T389 413L326 346Q285 303 244 257Q210
220 179 178Q223 239 271 293Q327 354 383 413Q344 415 299 416T182 418Q148 425 116 427T50 430Q52 432 52 436Q52 441 51 445T49 454Q49 459 55 463T82 467Q87 467 92 467T104 466V475Q65 482 43 492T20 514Q20 523 33 528T68 537T118 541T175 543Q205 543 237
542T308 540T395 536T506 532Q516 518 525 501T543 467T556 438T563 421Q516 374 469 328T377 235T292 138T218 34Q206 14 198 -9T184 -52T172 -86T158 -100Q156 -100 152 -98Q172 -11 216 69Q193 31 175 -10T146 -95L134 -92Q131 -92 129 -100T123 -119T114 -138T99
-147Q87 -147 83 -134T71 -101L77 -86ZM490 497L485 509L474 503Q479 487 482 470T489 436L490 497ZM366 250Q342 232 324 214T292 178T265 142T239 103Q295 184 366 250ZM378 371Q337 330 298 288T223 198L224 199Q259 241 300 286T378 371ZM171 166Q175 172 179
178Q175 172 171 166ZM167 160L171 166L167 160Z" />
<glyph unicode="8" glyph-name="eight" horiz-adv-x="617" d="M406 622Q410 623 414 623H422Q447 623 474 614T523 589T559 549T573 499Q573 471 559 448T524 405T478 369T431 341L433 339Q456 352 482 367T529 402T565 445T580 499Q580 523 571 542T546 577T512
604T472 623Q497 621 519 613T559 588T586 550T597 501Q597 471 583 445T548 397T502 358T452 326Q477 307 502 285T547 237T579 181T592 116Q592 81 577 52T537 -3T480 -47T415 -80T350 -100T292 -107Q247 -107 199 -94T112 -54T46 10T20 97Q20 139 39 176T89
245T156 300T227 341Q200 370 177 407T154 488Q154 514 165 536T195 575T236 606T282 627Q285 622 290 618T297 608Q297 603 284 596T255 578T226 551T212 511V505L221 506Q221 521 231 534T256 559T286 576T310 583Q322 583 335 578T356 564Q347 561 332 555T302
541T276 522T265 498Q265 489 275 473T300 440T329 409T352 388Q363 393 384 405T427 433T465 466T481 498Q481 505 477 509T468 517T457 525T450 536L454 541Q461 538 469 535T484 526T495 515T500 500Q500 487 491 476T475 456Q484 464 494 476T504 502Q504 511
499 518T485 533T467 545T450 553L446 563Q440 565 428 569T403 580T382 592T372 604Q372 614 385 617T406 622ZM470 124Q470 153 452 176T409 217T359 249T319 278Q295 265 265 250T208 214T163 169T145 111Q145 82 157 62T188 29T230 11T277 5Q315 5 352 17T418
53L419 58Q389 37 353 26T280 14Q258 14 236 19T195 36T165 67T153 114Q153 137 164 155T192 188T230 214T271 234Q251 224 231 213T194 188T167 157T156 115Q156 87 167 69T196 39T236 23T281 18Q289 18 296 18T311 20Q326 22 353 31T406 54T451 86T470 124ZM241
328Q206 311 173 292T115 250T73 196T55 129Q58 163 74 191T116 244T175 287T245 322L241 328ZM301 284Q274 272 244 257T188 222T146 176T129 114Q129 86 141 61Q151 41 167 26Q151 41 142 61Q131 87 131 114Q131 148 148 174T190 219T246 254T301 284ZM371 374Q385
382 401 392T428 413L365 378L371 374ZM172 22L167 26L172 22ZM176 20Q175 21 173 22Q174 21 176 20Z" />
<glyph unicode="9" glyph-name="nine" horiz-adv-x="599" d="M125 -59Q125 -38 150 -18T212 24T293 71T374 128T436 198T461 285Q461 330 444 374T400 453Q426 416 441 372T457 283Q457 248 442 218T403 162T347 113T282 71T218 34T160 3Q183 30 210 49T265 85T321
121T374 164L388 162Q410 187 426 217T443 282Q443 324 433 368T400 449T344 508T264 532V526Q307 520 339 498T393 444T426 371T437 287Q437 257 424 230Q414 209 399 190Q413 209 423 230Q435 257 435 288Q435 337 420 380T378 455T311 505T224 524Q194 524 172
515T149 489Q149 461 167 440T214 403T282 381T359 373V367Q359 362 359 359T360 353Q360 343 349 341T332 339Q323 339 314 340T296 343L293 331Q299 329 316 326T351 317T384 304T399 290Q399 284 390 279T368 271T345 267T329 265Q281 265 228 278T131 319T59
388T30 486Q30 526 46 555T90 602T151 629T222 638Q298 638 359 613T462 543T526 434T549 292Q549 246 537 209T502 140T450 81T385 30Q375 23 352 7T303 -25T254 -55T220 -69L214 -63Q269 -26 325 9T430 90Q381 45 325 11T211 -57L205 -42Q200 -46 192 -51T174
-61T155 -69T139 -72Q125 -72 125 -59ZM508 189Q530 231 530 289Q530 320 523 354Q525 340 527 326Q529 309 529 292Q529 238 507 191Q490 156 465 126Q492 158 508 189ZM393 182Q396 186 399 190Q396 186 393 182ZM462 122Q458 118 455 114L462 122ZM522 361Q522
359 522 358Q522 359 522 361Z" />
<glyph unicode=":" glyph-name="colon" horiz-adv-x="317" d="M267 475Q266 465 263 456T259 437Q251 445 233 448T203 451Q192 451 183 448H190Q207 448 224 446T256 430Q252 422 248 419Q238 423 225 425V436Q215 434 210 434Q205 434 200 434T190 435Q182 435
175 434T163 427L165 422L179 426Q186 428 193 428Q209 428 224 425Q219 425 205 424T177 421T151 414T140 405Q129 413 120 418T103 434L106 438L99 446Q92 446 84 448T68 455T55 466T50 481Q67 509 98 526T161 544Q181 544 199 538T238 532Q242 532 245 533T252
534Q261 534 261 521L260 514L220 518Q200 520 181 524Q200 517 220 516T260 508L259 492H264Q265 488 266 484T267 475ZM251 32Q231 40 216 45T179 52Q198 46 215 43T249 25Q246 19 239 14Q234 16 229 18T217 21V32Q215 32 214 32T210 31Q197 31 189 35T169 40Q159
40 155 31Q166 31 179 28Q191 25 203 23H173Q160 23 147 24T124 28T107 38T100 56Q100 67 104 74L107 73V84Q101 92 99 102T97 122Q97 142 111 147T142 153Q150 153 157 153T170 152Q174 152 183 148T202 140T221 131T237 127L247 128Q253 119 253 108Q237 111
222 115T193 127Q206 117 222 114T252 103L251 87L255 86Q258 77 258 67Q258 51 251 32Z" />
<glyph unicode=";" glyph-name="semicolon" horiz-adv-x="314" d="M118 -173L107 -170Q117 -148 128 -128T154 -89Q137 -106 125 -126T103 -169L87 -164L85 -170Q77 -172 73 -172Q50 -172 32 -154Q37 -150 45 -136T63 -104T79 -70T90 -47Q76 -73 62 -99T27 -149Q20
-140 20 -131L39 -95L49 -99Q51 -87 57 -76L69 -55Q75 -45 80 -34T85 -11Q85 -12 83 -12Q82 -12 80 -10Q77 -29 67 -45L50 -74Q56 -61 63 -40Q71 -17 79 6T96 47T109 65Q117 65 125 64T134 57L133 53L144 52Q150 58 159 63T177 68Q209 68 209 36Q209 2 202 -24T183
-75T156 -122T124 -172L118 -173ZM263 416Q249 421 235 421T207 424L192 421Q228 421 261 409Q259 401 253 396L229 399L227 409Q218 406 212 406Q207 406 203 407T192 408L180 401L182 396Q195 400 206 400H214Q218 400 223 399Q198 397 178 389L177 388L170 397Q164
399 153 402T137 411L139 413L130 418Q127 418 124 418T115 417Q101 417 86 421T71 440Q77 454 87 467T109 492T136 510T167 517Q182 517 197 512T227 507Q230 507 236 509Q242 501 244 491Q239 490 235 490H226Q234 488 240 484T248 469L252 470Q264 450 264 426L263
416ZM185 497Q190 495 195 494L205 492L185 497Z" />
<glyph unicode="&lt;" glyph-name="less" horiz-adv-x="717" d="M361 122Q283 140 206 158T50 193Q114 261 178 320T313 423T466 492T646 518V511Q646 505 646 501T647 494Q647 489 643 487T631 483T617 481T605 480H598L599 469Q605 469 616 467T639 460T659
449T667 434Q667 423 647 414T599 399T547 388T512 380Q452 361 400 327T295 257Q335 246 374 235T452 212Q459 210 479 206T521 197T560 184T577 170Q577 168 575 164Q500 184 425 201T275 241L274 240Q349 219 423 201T572 159L567 143Q580 141 596 135T613 112Q613
100 598 94T574 85Q522 109 466 126T353 156T238 180T124 203Q178 187 233 174T343 148T452 119T559 82Q547 79 534 79Q514 79 495 83T456 94T417 107T378 119L369 131Q293 142 220 163T71 203Q119 250 168 295T269 383Q267 383 267 387Q208 345 157 296T57 196Q134
178 209 160T361 122ZM101 208Q117 225 132 242Q141 251 149 260Q140 251 131 242Q114 226 97 209L101 208Z" />
<glyph unicode="=" glyph-name="equal" horiz-adv-x="634" d="M575 437Q583 437 588 432T594 418Q594 407 587 398T570 382Q547 393 519 400T461 411T402 416T348 418Q374 416 402 415T458 409T513 398T563 377Q552 370 542 370Q524 370 511 376T481 384L474 395Q436
395 398 400T321 406Q296 406 276 402L277 397Q324 397 370 395T462 386Q427 390 391 391T319 393Q275 393 232 393T145 389Q137 392 127 393T109 396T94 403T88 422Q88 431 96 432T111 434V445Q99 449 86 458T73 483Q73 495 95 502T148 513T213 518T270 519Q301
518 317 518T356 515Q365 514 385 511T431 505T483 497T532 487T568 477T583 466Q583 462 581 458Q533 472 483 478T383 492Q407 487 432 484T481 476T530 467T579 453L575 437ZM534 253Q546 248 558 238T570 214Q570 202 546 196T491 186T428 183T383 182Q317
182 252 192T121 203Q116 203 108 202T91 201Q80 201 73 204T65 216L66 221Q117 219 166 216Q215 214 264 207Q216 216 167 218Q118 221 67 226Q67 228 67 230T68 234Q68 236 68 238T67 243H53Q40 251 40 266Q40 275 45 283T56 297Q99 295 141 288T227 281H233L294
282Q236 286 178 288T63 304Q69 309 75 312T90 315Q109 315 123 313T156 310L164 299Q172 300 180 300H197Q226 300 256 298T316 295Q344 295 367 299V305Q347 304 329 304T291 303Q259 303 229 304T167 310Q222 307 278 307Q334 307 389 308T501 310Q529 299 557
299Q556 296 556 291Q556 287 556 284T557 276Q557 269 553 266T542 263L534 264V253Z" />
<glyph unicode="&gt;" glyph-name="greater" horiz-adv-x="678" d="M127 521Q169 521 230 513T354 488T473 450T560 400Q581 381 596 359T628 313Q564 276 518 260T432 234T350 214T257 181Q246 176 232 167T202 149T172 132T147 124L135 135Q152 141 168 148T198
166Q183 158 167 152T135 141L130 156L116 151Q106 148 104 148Q95 148 86 152T77 168Q77 182 85 190T105 204Q130 214 154 226T202 250T250 274T301 292Q274 287 250 276T202 252T154 228T102 212Q134 247 179 267T269 305L272 295Q307 310 344 320T420 337L410
341Q377 330 342 323Q309 317 275 307Q307 318 339 327Q372 336 406 342Q392 348 366 355T309 371T243 386T176 400T118 409T76 413Q76 415 76 416T77 419Q77 427 75 435Q78 443 84 445T99 448Q104 448 109 448T119 446L120 457Q114 458 103 461T79 470T59 481T50
496Q50 505 60 510T82 517T108 520T127 521ZM426 339L438 342L362 370L351 367L426 339ZM326 299Q359 306 400 315T470 336L466 337L326 299ZM491 264Q453 253 415 247T338 228Q376 236 414 243T491 264ZM326 299Q325 299 324 298L326 299Z" />
<glyph unicode="?" glyph-name="question" horiz-adv-x="460" d="M410 463Q410 424 399 399T368 358T325 332T275 311T226 290T182 259Q182 253 177 242T171 220Q171 206 178 195T185 177Q185 166 179 160Q166 171 161 187T155 220V236Q155 243 156 249Q154 240
153 230Q153 218 153 207Q153 193 159 180T174 157L163 145L173 137Q179 133 185 128T195 118T200 107Q200 95 187 91T164 86L151 87Q85 139 85 220Q85 240 89 257Q93 274 97 292Q93 284 90 274Q87 264 85 252T82 229T81 208Q81 176 93 145T131 92Q112 98 99 111T77
141T65 177T61 215Q61 238 67 268T87 318L96 313Q109 344 135 360T192 388T250 412T297 449L298 456Q298 467 295 478T287 501Q287 498 283 498H282Q285 489 287 480T290 461L288 450Q265 427 240 418T185 396Q209 408 237 421T285 454Q285 469 282 486T272 520T256
549T237 566V565H236L223 562Q201 557 173 551T126 532Q124 539 116 544T108 556Q108 562 118 569T134 578L129 588Q113 583 98 580T65 577Q59 577 55 580T50 591Q50 612 73 629T126 660T188 681T238 689Q278 689 309 667T363 611T398 538T410 463ZM179 -80Q192
-85 201 -87T218 -103L213 -114L200 -108L201 -98Q199 -99 196 -99Q190 -99 186 -96T176 -93Q172 -93 170 -97T168 -104L178 -102Q183 -103 187 -104T197 -107Q194 -107 192 -107T186 -106Q173 -106 156 -111L151 -101Q146 -93 143 -86T136 -70L138 -68Q135 -61
129 -53L118 -38Q113 -31 109 -24T105 -9Q116 5 133 11T167 18Q170 16 176 13T190 6T203 1T212 -2Q215 -2 219 0L223 -11L222 -20Q211 -18 201 -15T182 -5Q191 -13 201 -16T222 -25L221 -42H223L224 -57Q224 -66 222 -76T220 -96L218 -95Q214 -89 208 -88T196 -83L179
-80ZM301 338Q288 335 269 329T230 315T192 297Q176 288 168 278Q176 287 192 296Q210 305 230 312T269 326T301 338ZM131 365Q109 350 92 327Q108 350 130 366Q152 382 177 393Q153 379 131 365ZM285 418Q279 415 273 411Q279 414 285 417Q289 420 293 423Q289
420 285 418Z" />
<glyph unicode="@" glyph-name="at" horiz-adv-x="1056" d="M916 660Q961 606 983 540T1006 405Q1006 335 985 275T928 153Q926 150 914 130T880 87T825 46T751 27Q712 27 682 47T635 90Q631 95 622 111T602 148T585 188T577 219Q569 195 549 178T504 149T450
131T397 125Q374 125 344 132T285 159T235 210T209 291Q207 301 207 307Q207 318 208 328T212 349Q215 362 226 386T255 437T299 492T358 544T432 581T521 596Q549 596 578 585T629 548Q622 552 620 552Q617 552 617 549Q617 545 618 543V537Q618 528 614 528Q610
528 605 533T589 543T563 554T524 559Q502 559 477 553T420 533L425 523Q468 543 507 543Q536 543 553 535T580 514T592 488T595 462Q595 459 594 453T591 441T587 430T581 425Q576 425 570 445Q562 467 555 477T525 487Q499 487 467 472T405 431T356 375T332 313Q332
283 345 266T398 249Q420 249 443 256T486 275T517 302T529 335Q529 346 525 357T520 379L634 416Q649 386 661 342T687 256T715 184T751 152Q767 152 789 176T832 238T867 320T881 405Q881 470 858 522T793 611T697 668T580 688Q482 688 405 655T274 568T192 443T163
299Q163 236 184 178T250 76L255 71Q277 49 309 33T377 7T446 -9T507 -17Q544 -20 568 -20T605 -21T624 -23T629 -28Q629 -32 620 -34T597 -37T571 -38H552Q489 -38 419 -24T292 23Q348 -10 417 -26T561 -42Q590 -42 620 -39Q615 -44 615 -48Q615 -53 620 -56Q659
-49 692 -39T752 -20T794 -4T813 3Q818 3 818 -2Q818 -10 811 -21Q790 -50 761 -67T699 -94T630 -107T561 -111Q539 -111 509 -109T443 -102T372 -88T301 -63Q362 -92 430 -105T566 -118Q589 -118 611 -117T657 -112Q597 -130 521 -130Q463 -130 402 -117T281 -76Q217
-47 173 -2T102 95T62 202T50 305V317Q50 324 51 331L62 337Q66 432 101 507T191 637T313 729T449 781L462 784Q491 791 520 793T579 796Q678 796 755 763T885 676T965 550T993 404Q993 316 961 240T874 100L878 104Q881 107 883 107V106L881 100L931 166Q965 220
983 279T1002 403Q1002 478 983 537T931 640T855 715T765 766T669 794T576 803L524 799Q498 797 473 792L447 787Q368 767 302 729T184 637T100 516T55 370Q69 475 119 556T243 692T405 777T585 806Q632 806 678 797T767 770T848 725T916 660ZM445 765Q386 753
335 727T241 665T165 584Q133 540 111 490Q134 540 167 582Q202 625 244 659T336 719T437 760L450 763Q482 771 516 775T584 780Q652 780 714 762Q765 747 808 720Q762 750 709 764Q646 782 583 782Q554 782 522 780T459 768L445 765ZM142 305Q142 221 172 157Q157
192 150 230Q143 269 143 302Q143 399 181 474T281 601T421 679T579 706L575 707Q486 707 408 677T270 594T177 466T142 305ZM72 302Q72 221 94 159T154 48Q112 104 93 172T73 305Q73 325 76 345T80 382Q80 384 80 385T79 389V392Q78 392 77 382T75 356L73 326Q72
311 72 302ZM824 709L808 720L824 709ZM236 65Q237 64 239 64L238 65H236Z" />
<glyph unicode="A" glyph-name="A" horiz-adv-x="774" d="M556 163L550 166Q508 177 461 180T365 193Q413 183 459 178T550 157Q536 148 520 148Q501 150 483 154T443 160Q443 166 446 169Q417 169 389 175T333 188T281 202T233 209Q233 206 232 206Q258 201 281
192T333 178Q361 171 387 168T440 160Q398 164 355 172T269 190L222 202Q197 138 172 77T122 -48Q120 -44 116 -44T107 -43T98 -41T94 -30Q94 -22 98 -8T113 31Q111 33 107 33T100 34Q80 -8 62 -30T32 -53Q20 -53 20 -30Q20 -11 27 18T44 82T68 152T93 224Q82 231
70 234T42 239Q45 243 45 249T46 261T50 271T61 275Q63 275 73 273V282Q57 290 49 301T40 323Q40 347 86 347Q99 347 112 346T140 342L186 447Q201 481 218 517T260 588T314 654T385 711L400 717Q428 710 445 706T474 699Q484 695 490 694H489L490 691Q490 690
489 689L501 668Q566 559 611 442T688 212Q696 187 707 159T729 105T747 59T754 29Q754 22 751 21T743 19Q717 84 694 147Q671 209 649 272Q669 209 691 147Q714 84 737 19H730Q724 19 722 13Q724 11 727 3T733 -15T738 -35T740 -50Q740 -72 727 -72Q720 -72 716
-69T707 -61L697 -51Q691 -45 682 -39L586 237Q607 172 627 107T670 -21Q654 -2 641 25T616 82T594 143T574 203Q574 201 574 200T575 196Q575 180 565 172L556 163ZM550 267Q552 267 556 268T562 270Q529 353 497 431T425 581L419 575L434 548Q469 484 497 416T550
276Q521 354 488 431T416 572L412 570Q378 535 349 486T293 386L267 323L284 319Q299 315 313 311T339 301Q361 290 397 284T467 273T527 261T553 242L431 256Q442 254 458 252T490 246T523 241T550 236Q550 233 550 231T549 226Q549 224 551 224T557 223T564 220Q567
219 570 214L550 267ZM333 481Q335 481 335 479T335 476Q337 476 347 490T370 522T395 556T412 577L407 584Q386 564 368 537T333 481ZM434 589Q466 535 493 476Q519 418 542 360Q523 418 496 476Q468 535 435 589H434ZM587 439Q618 359 648 276Q620 357 589 436Q560
514 522 593Q558 517 587 439ZM440 611Q453 608 458 605T465 602L466 605Q467 605 462 606T454 608L456 612L444 616L440 611ZM391 621L399 600L398 621Q396 621 394 622T389 623L391 621ZM417 592L410 587L416 579L422 585L417 592ZM431 594H432L427 601V600L431
594Z" />
<glyph unicode="B" glyph-name="B" horiz-adv-x="688" d="M151 93V124L164 132Q161 149 160 165T159 199Q159 218 159 236T160 275Q160 296 158 317T151 359H145Q146 306 148 255T151 151Q146 227 140 303T133 457Q133 480 135 503T141 550L75 533L76 536Q74 539
71 547T67 557Q67 562 77 567T101 577T127 584T145 588L142 600Q134 598 110 596T60 593Q40 593 25 596T10 609Q10 620 30 631T81 651T151 669T224 683T287 692T326 695Q377 695 423 683T505 644T560 576T581 479Q581 456 574 432T553 385T516 344T462 318Q514
311 551 294T612 253T647 199T658 135Q658 91 641 60T594 8T528 -24T451 -42T372 -49T301 -51Q293 -51 271 -50T224 -46T182 -38T163 -23L164 -18Q206 -25 248 -29T332 -34Q364 -34 395 -30T457 -20Q401 -30 340 -30Q297 -30 255 -26T170 -15L175 -3L173 4Q170
3 164 3Q154 3 141 7T117 17T97 31T89 47Q89 52 97 55T115 59T136 62T150 64L151 93ZM251 567Q253 561 255 542T260 496T265 440T268 383T271 334T272 303Q272 250 268 198T264 92Q264 72 277 67T307 62Q355 62 402 65T494 86L497 74Q517 84 532 98T548 137Q548
164 531 183T490 215T438 233T389 239Q387 239 381 237T372 233Q386 232 407 228T450 218T492 201Q512 191 525 179Q506 194 473 204Q439 214 404 220T338 229T297 235L292 346H294Q320 346 348 355T401 382T441 424T457 478Q457 506 445 524T414 552T370 566T323
570Q305 570 287 569T251 567ZM265 41Q282 39 297 38T330 37Q346 37 369 38T419 44T472 55T520 73T554 100T568 138Q568 150 564 161T553 182Q558 174 561 165T565 145Q565 111 542 91T487 61T419 47T359 44Q336 44 313 45T266 49L265 41ZM175 57Q177 92 177 128V199Q177
219 176 238Q175 256 173 274Q173 248 173 222Q174 195 174 168Q174 140 173 113T168 59L175 57ZM364 343Q382 354 398 366T429 394Q424 394 424 398Q393 364 347 345L364 343ZM416 250Q446 245 480 231Q509 219 532 203Q510 221 480 234Q447 250 417 250H416ZM188
545L195 561L179 559Q179 557 179 556T180 552Q180 550 180 549T179 545H188ZM627 88Q637 114 637 137V148Q637 154 636 159Q636 127 630 100T602 48Q618 64 627 88ZM252 252Q248 233 247 214Q246 198 246 181Q247 197 249 213Q251 232 252 252ZM600 46Q581 26
558 14T510 -8Q536 1 559 13T600 46ZM569 270Q578 262 586 254L600 240Q594 249 587 256Q580 264 569 270ZM246 68V98Q245 90 245 83T244 68H246ZM527 177Q543 164 543 146V144Q540 162 527 177ZM524 103Q515 94 502 89L524 103ZM242 44H246V51H242V44ZM536 120Q535
120 535 122Q535 124 536 127T540 133L536 120ZM543 138Q543 137 541 135L543 139V138Z" />
<glyph unicode="C" glyph-name="C" horiz-adv-x="596" d="M537 106Q535 81 518 63T475 32T421 13T369 7Q301 7 247 39T155 123T95 238Q74 299 71 358Q73 297 94 235Q116 171 154 119T247 35T371 2Q409 2 445 14T512 47Q489 12 451 -3T373 -18Q328 -18 290 -6T216
34L212 50Q171 75 142 112T94 192T67 282T58 376Q58 426 67 475T94 573Q90 573 90 576Q69 530 59 481T49 381Q49 284 87 195T200 43Q161 73 132 112T83 195T55 288T45 385Q45 451 63 519T119 644T213 735T344 771Q378 771 408 760T466 731T516 690T561 643L540
625Q526 630 514 640T491 662L485 655Q498 640 509 621T520 580L509 562Q496 563 477 577T434 608T386 639T338 653Q308 653 285 638T242 599T210 544T188 481T175 419T170 365Q170 326 182 279T219 192T280 124T362 97Q383 97 405 101T446 117L454 108Q416 79
367 79Q319 79 279 102Q298 89 321 83Q346 76 371 76Q417 76 457 102L466 89Q476 100 491 110T522 123L537 106ZM155 307Q160 249 189 196Q218 144 265 112Q218 145 191 197Q163 250 155 307Z" />
<glyph unicode="D" glyph-name="D" horiz-adv-x="695" d="M165 -37Q157 -32 155 -14T153 30V54H144Q143 48 140 26T131 -20T118 -64T101 -83Q93 -83 88 -62T81 -14T79 41T78 82Q78 151 80 218T82 354Q82 422 71 489T60 623Q74 641 86 660T111 699Q147 708 186
716T263 724Q368 724 442 692T564 600T633 458T655 276Q655 116 567 39T321 -39Q315 -39 302 -38T284 -30Q312 -26 348 -21T422 -7T492 13T548 45Q518 25 487 14T423 -4T356 -13T288 -20L291 -9L288 -1Q269 -4 254 -7T221 -10Q204 -10 188 -6L187 -35L165 -37ZM236
48Q305 48 364 52T468 78T537 145T563 274Q563 315 558 360T538 449T498 529Q475 563 440 585Q474 562 496 528Q521 491 534 448T553 360T559 273Q559 218 549 182T521 123T477 88T418 71T346 63T263 57Q298 72 338 77T416 90T484 117T529 182L541 186Q545 206
546 221T547 257Q547 319 537 381T500 494T425 576T302 608Q274 608 247 605T192 595Q194 594 194 592Q194 589 193 589Q246 600 295 600Q356 600 401 579T475 520T519 432T535 325Q527 383 513 432T472 518T402 574T293 595Q268 595 243 594T194 585Q199 523 203
462T207 339Q207 257 201 178T189 17Q199 27 212 33T236 48ZM635 271Q635 320 629 370T608 467Q622 416 627 365T633 262Q633 236 630 209Q629 206 629 203Q635 236 635 271ZM538 267Q538 252 536 238Q537 244 537 250V283Q537 282 537 281Q538 275 538 267ZM537
283Q537 289 536 294Q537 288 537 283ZM619 157Q621 163 622 169Q621 163 619 157Z" />
<glyph unicode="E" glyph-name="E" horiz-adv-x="575" d="M452 325Q413 339 371 343Q331 348 289 352Q327 346 367 341Q409 336 446 319Q442 315 438 312T430 309Q416 309 403 312T375 316V328Q370 327 361 327Q336 327 312 334T263 341Q250 341 238 338V334Q270
332 303 328T372 316Q340 321 304 325T235 329Q222 329 211 329T188 327Q188 306 189 278T193 224T200 177T210 151L219 133Q231 96 299 96Q314 96 335 100T377 109T418 119T452 123Q466 123 468 119T470 108Q428 103 389 93Q355 84 323 79Q355 84 388 91Q427 100
467 105Q465 99 465 97Q465 91 470 87L484 89Q490 90 496 90T507 93Q525 88 532 82T540 69Q540 56 528 51T504 35H500Q471 35 444 31T391 21T337 12T280 7H266H260Q279 5 301 5Q329 5 353 8T401 15T445 22T489 25Q473 17 450 10T399 -3T341 -12T282 -16Q262 -16
243 -14T202 -1L201 10Q187 15 172 28T143 57T121 85T112 102L109 111Q100 130 95 153T86 199T81 246T78 289Q76 322 75 355T74 423Q74 457 74 491T75 561H72Q67 523 67 488T66 418V379Q66 309 73 233T112 85Q89 124 83 162T72 234Q66 277 64 317T61 399V420Q61
478 64 538T82 665Q76 665 76 671Q76 677 82 688T99 709T121 727T146 735H384Q421 728 456 724T531 717L530 694Q530 688 525 685T500 681Q494 681 486 681T467 683V674Q508 665 531 652T555 627Q555 613 529 610T458 607Q402 607 339 607T216 613H199Q194 575
192 535T189 453Q205 453 220 454T253 456Q267 456 285 454T324 447T365 438T403 426Q406 425 410 425H427Q440 425 444 421T449 405Q432 405 417 407T388 411Q402 406 417 404T449 399Q447 394 447 390T446 383Q456 381 459 374T463 357Q463 344 458 337T452 325ZM100
212Q104 188 109 161T126 107T158 57Q174 38 200 25Q170 41 151 69Q129 103 117 145T98 234Q93 281 90 324Q91 297 93 269Q95 241 100 212ZM345 416Q362 413 381 411Q363 416 347 418T315 425Q328 419 345 416ZM181 6Q168 12 158 20Q151 26 145 32Q151 26 159 21Q170
13 181 6ZM211 20L202 24L211 20Z" />
<glyph unicode="F" glyph-name="F" horiz-adv-x="516" d="M121 753Q144 753 166 756T212 760Q237 760 261 758T311 753Q282 758 253 759T195 761Q177 761 160 761T124 759Q132 772 147 777T176 782H181L206 781L210 771Q218 773 225 773H241Q265 773 289 770T339
766H351Q357 766 364 768L366 773Q405 771 445 771Q460 771 471 765T497 759V736Q497 730 495 726T488 721L482 722V713Q492 706 499 695T506 672Q506 663 502 658T490 650T475 647T460 646Q397 646 330 652T197 670L178 665Q179 661 180 647T184 612T188 568T193
526T196 493T197 478H237V468Q255 473 268 473Q284 473 299 470T332 467Q340 467 347 468T363 471V478Q348 477 333 477T303 476Q293 476 284 476T265 478Q307 478 347 481T430 484Q447 484 461 475T475 447Q475 442 473 438T466 434L460 435V426Q470 418 476 407T482
383Q482 373 473 367T449 358T418 353T385 352Q341 352 304 359T228 367Q222 367 212 365Q215 332 215 298Q215 252 212 206T209 113Q209 106 210 95T211 73Q211 59 208 48T191 37V303Q188 273 188 244T187 185V81Q187 60 185 37L170 40V22Q166 15 160 10T145 4Q135
4 129 8T120 20T115 35T114 51Q114 94 118 138T122 226Q122 253 119 280T112 334Q113 292 114 252T116 170Q116 135 114 102T106 34Q93 50 93 68Q93 91 94 115T96 162H109Q103 195 102 228L100 295Q99 329 97 362T87 429L81 426Q95 308 96 188Q93 284 82 378Q71
478 63 579Q61 584 61 590T60 603Q60 622 61 639T63 677L88 679Q99 679 100 668T102 649H115Q117 662 124 677T146 698L145 701L136 698Q126 703 122 712T117 733Q117 738 119 743T121 753ZM201 455Q218 455 234 454T268 452H277L317 453Q288 457 259 456T201 459V455ZM297
778Q264 782 231 784Q283 782 336 776Q349 775 361 774Q328 774 297 778ZM172 684Q178 686 193 687T216 689H192Q176 689 169 688L172 684ZM240 386Q251 384 262 383Q270 382 278 380Q270 382 263 384Q254 386 243 386H240ZM366 774H361Q363 774 366 773V774ZM283
380Q281 380 278 380Q281 380 283 380Z" />
<glyph unicode="G" glyph-name="G" horiz-adv-x="741" d="M602 -35Q594 -35 583 -29T571 -12Q571 5 575 20T581 52L577 49L565 -8Q553 9 553 26Q553 30 555 34Q536 25 517 19T476 13Q422 13 375 27T279 62L274 75Q226 95 186 129T116 206T70 300T53 402Q53 447
65 490T103 570L97 573Q73 536 59 494T44 407Q44 363 56 319T90 233T142 157Q172 124 208 100Q173 122 142 154Q111 188 89 228T53 313T40 400Q40 474 73 536T161 644T283 714T422 740Q467 740 508 728T592 702Q587 699 587 694T585 685T582 677T571 674Q558 674
546 678T522 687L519 674Q526 672 537 666T560 653T580 636T589 619Q589 607 580 605T561 602Q531 602 501 611T441 620Q387 620 337 605T249 562T188 492T165 396Q165 341 192 293T261 208T357 150T462 129Q466 129 474 129T493 130Q507 130 518 128T531 117Q517
115 502 113T473 110Q432 110 388 121Q435 107 482 107Q493 107 505 108T528 111L538 99Q547 101 553 101T574 108Q574 140 577 170T580 233V247Q580 265 578 285T563 318L557 315Q567 292 570 266T573 214Q573 171 567 131Q570 164 570 197Q570 204 569 224T564
266T557 305T547 322Q523 322 499 326T450 330H445L418 329Q418 332 418 336T417 344Q417 352 420 359T434 366L446 365V377Q432 381 418 390T403 416Q403 428 416 435T446 445T481 450T507 451Q598 451 644 404T691 266Q691 206 681 147T671 27Q671 14 668 3T648
-8L653 64L644 -5Q641 -5 638 -5T632 -6Q630 -6 629 -6T626 -5V-20Q618 -35 602 -35ZM557 44Q539 43 522 40T486 37Q415 37 345 60T218 126T119 229Q90 272 76 322Q90 265 123 219Q166 157 228 115T365 52T516 31H522Q532 31 541 33T557 44ZM181 258V256Q181 246
194 232T224 205T257 180T282 164Q273 171 259 182T229 206T201 232T181 258ZM587 106Q589 129 593 150T597 195Q597 209 596 222T592 249Q592 213 591 177T585 106H587ZM672 224Q660 194 661 165Q662 138 658 111Q663 138 666 166Q670 195 672 224ZM70 351Q73
336 76 322Q73 336 70 351ZM69 362Q70 356 70 351Q69 356 69 362Z" />
<glyph unicode="H" glyph-name="H" horiz-adv-x="691" d="M554 -45Q546 -43 537 -39T522 -26Q522 9 521 43T519 113Q519 167 522 221T526 329Q518 243 518 158T513 -14Q499 6 497 31T494 81L496 131L507 136Q504 164 504 194Q504 229 507 262T513 331H505L495
174L500 331Q473 331 447 326T394 321Q343 321 293 323T191 327Q191 271 186 217T180 107Q180 99 181 87T183 60Q183 47 180 37T169 24L162 26L163 130Q161 104 160 78T159 26Q156 27 150 27Q143 27 141 26Q142 23 142 18Q142 -6 118 -12Q109 -8 103 -5T93 3T87
17T85 39V56L80 23Q72 31 70 40T68 59Q68 84 70 108T72 158L80 163Q77 196 77 229Q77 261 78 294T80 360Q80 383 79 407T74 454H68Q70 414 70 374T71 294V169Q71 269 66 369T60 569Q65 617 68 652T77 729Q87 728 99 726T112 710L110 693H123Q125 699 128 707T137
723T148 736T163 742Q173 742 178 728T187 690T191 637T192 575Q192 558 192 542T191 511Q191 491 191 474T193 442H246L254 430Q268 432 281 433T308 434Q319 434 331 434T354 433Q373 433 391 435T429 442V448Q394 443 360 442Q329 442 297 442Q346 444 397 449Q450
454 503 456Q503 514 507 572T511 687L510 708L535 710Q539 710 541 706T546 696T549 685T550 677Q553 680 557 686T565 698T574 708T580 713Q597 713 607 707T622 691T629 667T631 641Q631 631 631 622T630 604V479Q630 382 619 286T608 93Q608 86 610 68T613
31Q613 17 610 8T599 -2Q592 35 590 74Q590 36 593 -2L584 0Q582 -14 576 -27T554 -45ZM93 175Q96 211 96 248Q96 274 95 299Q94 322 92 346Q92 313 92 280Q93 246 93 211V175ZM306 416Q321 416 336 417T367 420H347Q326 420 306 419T264 418Q275 416 285 416H306ZM194
417H258Q255 417 252 418Q243 419 231 420T209 422T194 424V417ZM592 215Q590 182 590 149Q592 181 594 215Q597 250 601 284Q595 250 592 215ZM254 347Q224 350 194 350L193 347H254Z" />
<glyph unicode="I" glyph-name="I" horiz-adv-x="273" d="M74 61Q95 118 103 184T115 318Q115 328 114 337Q114 345 114 352Q111 278 102 204Q94 128 68 64Q64 72 62 78T60 92Q60 116 68 142T78 196L92 202Q92 251 96 299T100 397Q100 422 99 446T92 496H86Q92
425 92 360Q92 327 90 297Q88 269 83 240Q86 262 87 282Q89 305 89 331Q89 412 83 495T71 667V695Q74 707 74 721T77 748T84 769T103 778L120 773L126 761H135Q139 767 144 767Q150 767 156 763T170 758Q185 758 191 738T199 687T201 620T205 551Q208 522 210 493T213
433Q213 403 211 363T206 281T197 196T186 121T172 68T156 47Q154 47 150 49Q157 81 163 113T175 180Q168 148 161 115T144 52Q140 56 134 56Q132 56 130 51T123 40T113 28T100 23Q93 23 89 26T83 33T78 43T71 52L74 61ZM190 349Q184 329 182 313T179 281T178 250Q178
236 177 219Q181 253 184 281Q188 311 190 349ZM83 236Q83 238 83 240Q83 238 83 236Z" />
<glyph unicode="J" glyph-name="J" horiz-adv-x="463" d="M30 5Q54 -7 79 -19T132 -31Q161 -31 183 -14T221 29T247 90T265 157T275 221Q276 232 277 241Q276 233 275 224Q271 195 264 162T247 95T222 34T187 -10T140 -27Q115 -27 92 -18T48 5Q71 5 92 -1T136
-7Q156 -7 167 1T190 24L204 23Q226 65 240 116T262 221T273 328T276 429V460Q276 476 275 492L272 488Q270 438 268 378T260 256T240 138T201 37Q231 93 244 165T261 315T267 468T274 609Q218 615 160 622T45 629Q45 639 45 644T44 654Q44 663 58 665T78 667H80L103
666V678Q97 679 83 681T53 689T26 701T14 717Q14 726 32 731T74 739T118 742T145 743Q199 743 249 738T354 721L403 651Q396 615 393 563T388 449T383 322T370 193T343 73T296 -27T224 -95T119 -121Q93 -121 64 -112T15 -83L18 -75Q44 -88 71 -95T127 -103Q161
-103 194 -89Q163 -100 131 -100Q102 -100 76 -92T24 -72L31 -60Q26 -57 17 -52T0 -40T-14 -26T-20 -12Q-20 -2 -8 1T11 5H30Z" />
<glyph unicode="K" glyph-name="K" horiz-adv-x="677" d="M203 275Q207 265 212 245T222 216Q256 216 289 213T354 200Q373 193 391 184Q378 190 365 195Q338 204 308 207T245 211Q240 211 235 211T224 210L219 209Q213 220 210 237T201 267Q198 246 194 212T186
141T178 71T175 18Q175 13 175 3T176 -18Q176 -33 174 -45T161 -58Q159 -58 155 -56Q157 -36 156 -15Q156 -3 156 9L152 -56L143 -54L134 -56V-74Q130 -81 124 -87T108 -94Q91 -94 85 -79T78 -51Q78 -37 78 -23Q79 -11 79 1Q76 -12 74 -26Q71 -42 69 -59Q64 -51
62 -40T60 -19L69 91H82Q81 101 81 110T80 130Q80 184 88 238T96 347Q96 358 96 369T94 391H88Q88 325 84 261T72 130Q84 280 84 431Q84 462 81 493T77 556Q77 579 81 600T86 644V655Q86 661 85 666Q92 666 97 667T107 669Q117 669 119 659T121 640V636H134Q135
642 137 651T144 670T154 686T169 693Q179 693 186 675T199 628T206 565T210 499T211 442T212 407V356Q265 417 330 478T458 590Q482 609 503 625T544 666L566 643Q561 632 554 623T538 605L547 599Q553 604 562 610T581 623T601 633T619 638Q631 638 631 626Q631
602 616 581T566 530T474 453T331 331Q382 323 424 303T501 253T561 186T605 106Q609 96 618 79T635 42T650 6T657 -22Q657 -27 654 -33T645 -41Q628 9 610 57T562 149Q589 104 606 57T638 -41L623 -44Q625 -49 628 -59T632 -74Q632 -82 630 -94T615 -107Q604 -107
594 -99T577 -83Q566 -25 545 29T490 127Q518 88 535 39T565 -71Q550 -51 540 -28T520 18T500 65T476 109L485 116Q457 148 428 169T367 203T299 221T222 226L204 283L203 275ZM282 418L279 422L212 352L211 337L282 418ZM351 305Q417 287 470 246T562 149Q528
207 472 248T351 305ZM280 238Q362 227 413 197Q357 235 280 238ZM171 173Q167 141 165 108Q170 140 173 173Q177 205 182 236Q175 205 171 173ZM101 222Q99 194 96 164Q101 196 103 225Q106 256 106 282Q103 251 101 222ZM439 150Q428 161 416 169L415 170Q428
162 439 150ZM404 177Q399 180 394 183Q399 180 404 177ZM412 172L415 170Q410 173 406 176Q409 174 412 172ZM457 131Q455 134 452 137Q455 134 457 131ZM448 141Q450 139 452 137Q450 139 448 141ZM79 1Q80 2 80 3Q79 2 79 1ZM460 128Q458 129 457 131Q459 130
460 128Z" />
<glyph unicode="L" glyph-name="L" horiz-adv-x="580" d="M66 289Q69 219 72 149T78 9V4L75 7V14Q70 104 66 191T61 369V482Q61 509 61 535T63 589Q64 620 68 649T72 711H76Q83 711 88 712T96 713Q106 713 108 700T110 680L109 659H121Q122 665 124 678T132 706T143
730T159 741Q169 741 174 723T183 681T186 631T187 590V578Q187 463 189 348T191 118Q191 109 191 100T190 81Q190 76 190 72T191 63H201Q210 63 219 63T237 62Q300 62 361 68T486 75H490Q500 75 514 73T528 58V56Q475 56 424 53T320 44Q359 46 397 49T475 52Q488
52 500 52T525 50L521 38Q527 37 537 36T556 30T573 21T580 7Q580 -7 567 -12T543 -23Q528 -18 512 -18T479 -17Q444 -17 410 -20Q378 -23 345 -26Q369 -25 391 -24Q416 -23 441 -23Q463 -23 484 -24T528 -29Q510 -37 484 -41T429 -47T372 -49T323 -51L314 -41Q292
-46 270 -47T225 -49Q201 -49 177 -47T130 -41Q119 -29 108 -18T84 5Q84 77 81 147T72 289H66ZM279 -31Q255 -32 229 -32Q198 -32 171 -30T133 -23L103 6L94 124V102Q94 79 97 56T100 10V4Q108 -4 115 -12T130 -29H137Q159 -29 180 -31T224 -34Q247 -34 269 -32Q277
-32 286 -31H279ZM194 39Q199 38 204 38T216 37Q242 37 268 38T320 44Q288 42 257 42T194 41V39ZM127 -48Q144 -53 162 -54T201 -56Q213 -56 224 -55Q234 -55 243 -55Q237 -56 229 -56Q221 -57 213 -57H193Q181 -57 169 -56T145 -54T128 -51Q125 -48 118 -41T103
-25T89 -10T81 0L127 -48ZM168 43L146 47Q152 45 164 40T182 33L179 44L168 43Z" />
<glyph unicode="M" glyph-name="M" horiz-adv-x="898" d="M369 372L367 375Q367 387 363 401T352 429T339 456T325 482L318 486Q331 455 345 430T359 377L364 371L355 375V381Q337 416 321 457T287 534Q277 467 262 400T224 270Q204 216 176 167T129 62L121 68L110
66Q101 68 101 78Q101 86 104 97T111 121T121 144T129 163L120 166Q117 160 106 139T81 96T54 56T34 38Q29 41 27 47T25 59Q25 88 38 134T70 229T106 326T135 405Q144 433 151 465T164 531T174 598T181 661Q198 674 227 683T282 702Q336 658 375 601T443 472Q461
499 476 532T505 600T530 671T554 736Q579 744 606 748T661 757Q688 701 712 650T756 548T793 442T823 326Q829 294 838 262T854 196T867 130T873 64Q873 61 871 56T860 50Q844 144 825 236Q806 326 778 415Q803 326 821 238Q840 147 854 53L840 45Q842 33 845
20T848 -5Q848 -8 848 -17T846 -37T841 -54T831 -62Q825 -62 819 -55T807 -37T797 -17T790 -2Q784 64 770 145T735 310T690 472T636 611L635 606Q667 538 690 467T730 322T759 174T780 26Q759 72 747 119T725 214T706 310T682 407L689 427Q675 468 661 508T627
586L623 576Q612 546 595 506T555 428T504 360T441 320Q420 333 399 344T355 368V374L395 352Q415 341 435 329L443 331Q486 356 512 381T558 436T591 503T625 589L621 598L617 589L600 550Q590 526 576 499T544 443T508 391T471 353T435 338L369 372ZM713 614Q711
620 706 630T696 652T685 673T677 689L688 658L710 612L713 614ZM608 610L574 520Q584 541 592 562T609 604L608 610ZM582 702L595 669L600 670L588 702H582ZM191 648L189 618Q189 608 187 591L198 650L191 648ZM533 627L559 689H555L533 627ZM674 695L651 733L653
722L674 695ZM631 622L629 618L633 610L634 615L631 622Z" />
<glyph unicode="N" glyph-name="N" horiz-adv-x="715" d="M644 692Q652 692 653 683T655 664L654 657Q653 651 651 642T647 621T640 601Q626 557 618 514T604 428T596 340T590 251Q594 292 597 337T607 427T622 516T649 598Q634 502 625 407T609 215L597 209Q597
148 585 93T558 -22Q553 -22 547 -22T534 -23Q529 -23 520 -20T501 -13T481 -3T463 8Q420 36 386 77T325 169T277 274T238 386T202 495T168 594L162 589Q179 539 195 481T230 362T272 242T327 132T401 42T499 -20Q451 -7 414 24T346 99T292 192T249 295T215 397T187
488Q187 446 191 406T196 325Q196 256 200 187T208 48L186 44Q178 44 174 57T168 88T166 120T165 140H153Q153 132 153 109T149 60T140 15T121 -5Q113 -5 106 21T92 91T79 190T69 303T63 414T60 509Q60 562 67 614T92 717L202 738Q207 731 211 726T220 714Q249
672 270 623T308 520T340 412T375 306T419 208T480 126Q484 155 487 203T495 306T505 416T517 517T535 591T560 620L566 616Q545 554 538 491T527 364T519 237T499 111L505 108Q506 117 507 126T510 145Q518 203 521 261T529 379T542 496T569 610L579 603Q585 607
590 621T602 651T619 679T644 692ZM542 -14Q553 22 562 58T576 132Q570 96 561 62T542 -8Q482 13 445 38T382 95T336 167Q320 198 301 236Q313 211 322 190Q336 161 349 137T378 93T415 56T467 22T542 -14ZM496 86Q486 93 471 113T440 154T412 193T398 211Q414
174 439 144T493 86H496Z" />
<glyph unicode="O" glyph-name="O" horiz-adv-x="740" d="M283 -62Q327 -76 373 -76Q425 -76 470 -60T552 -16T617 49Q637 75 652 105Q639 77 622 50Q598 12 563 -17T481 -63T377 -81H364Q281 -81 220 -44T119 50T60 179T40 319Q40 348 43 380T56 446T84 510T135
568Q161 589 191 603T252 620Q249 618 249 616Q249 612 253 608T258 598V596Q258 592 254 590T239 585T213 574T175 553Q181 547 181 544Q200 554 216 558T246 562Q275 562 288 552T301 537Q301 529 289 524T260 512T225 492T197 455Q181 431 173 395T164 322Q164
259 179 207T221 117T288 58T378 37Q426 37 464 61T530 126T571 222T585 339Q585 369 582 398T568 455T539 506T490 550Q452 570 428 578T404 595Q404 598 408 602Q458 591 498 566Q535 543 560 506Q533 547 499 569Q462 594 411 608Q416 613 416 617Q416 621 402
624T370 631T339 641T324 656Q324 667 342 672T386 684Q393 684 399 682T411 678Q460 669 504 646T584 587T644 502T675 390Q670 449 649 497T593 584T512 648T414 688Q460 688 505 670T589 616T655 528T695 409Q693 409 689 408T683 406Q692 355 692 307Q692 237
671 170T609 51T509 -34T374 -67Q329 -67 286 -54T206 -19Q208 -21 208 -23Q208 -25 203 -25Q240 -49 283 -62ZM677 296Q672 257 663 216T637 134T595 59Q570 25 536 0Q570 24 596 57Q622 91 639 131T666 215T678 304Q677 301 677 296ZM597 238Q589 200 573 165T532
101Q558 128 574 163T597 238ZM700 326Q700 309 698 291Q697 274 695 256Q695 273 697 294Q699 316 699 342V360Q700 352 700 343V326ZM597 238Q602 260 604 282T607 328Q607 353 604 379Q605 368 605 358T606 337Q606 286 597 238ZM695 250L686 201Q681 183 676
166T664 131Q675 162 682 193T695 254V250ZM204 -27Q204 -26 203 -25Q203 -26 204 -27ZM664 131Q662 127 661 124Q662 127 664 131ZM653 107Q655 110 656 113Q655 110 653 107ZM566 498Q565 500 563 502Q564 500 566 498ZM661 124Q659 119 657 114Q659 119 661
124Z" />
<glyph unicode="P" glyph-name="P" horiz-adv-x="688" d="M230 201V180Q230 163 230 147T235 116Q230 67 228 18T225 -80L203 -81Q198 -81 196 -75T192 -59T190 -38T189 -18V2H179Q179 -4 176 -24T169 -66T157 -105T141 -123Q134 -123 129 -110T121 -79T116 -47T114
-26Q105 62 105 150T97 327Q94 357 88 385T76 443T65 501T60 562Q60 607 83 632T140 671T215 687T289 690Q358 690 424 680T543 641T626 560T658 423Q658 352 637 299T576 211T482 159T358 141Q355 141 345 141T324 143T305 148T296 158L299 165Q316 164 333 164T367
163Q397 163 426 166T484 178T536 203Q558 218 577 241Q557 218 534 203Q509 187 481 179T422 169T360 166Q346 166 331 166T302 168L301 187Q293 186 287 186T276 185Q264 185 254 188T230 201ZM321 576Q287 576 249 574T179 560L174 552Q212 563 244 565T305
567H309Q352 567 394 565T469 548T522 503T543 416Q543 399 540 384T532 354Q536 368 538 382T541 412Q541 450 528 481T486 537L479 541Q464 548 442 552T394 558T344 561T296 562H268Q250 562 227 559T186 551Q186 526 190 502T200 453L211 405Q217 381 219 357L228
232Q235 237 243 240T266 244H271Q293 237 316 236T363 235Q411 235 448 244T512 274T551 331T565 419Q565 442 558 469T535 521T497 561Q475 577 446 578Q474 575 496 560Q518 545 533 522T555 472T563 418Q563 327 519 284T384 241Q362 241 340 243L296 247Q329
255 363 256T429 264T486 286T528 342L537 339Q549 372 549 408Q549 463 531 496T481 547T409 570T321 576ZM638 425Q638 466 627 500T593 568Q614 535 624 498T635 421Q635 358 610 300Q623 328 630 359Q638 392 638 425ZM470 651Q484 646 497 643T525 633Q500
646 470 651ZM565 603Q561 611 547 620Q534 628 526 632Q536 624 545 619Q555 613 565 603Z" />
<glyph unicode="Q" glyph-name="Q" horiz-adv-x="751" d="M626 -175Q636 -169 639 -160T642 -139Q642 -97 622 -56T577 17Q587 1 598 -16T618 -52T633 -90T639 -129Q639 -140 635 -152T620 -169L613 -154Q615 -149 617 -143T619 -131V-122Q619 -119 618 -113L626
-105Q614 -82 604 -58T581 -10T553 34T517 73L514 67Q546 31 574 -13T613 -105Q606 -80 594 -56T566 -8T533 38T498 79Q475 59 453 45T406 22T355 9T295 5Q234 5 188 31T110 99T62 192T45 295Q45 347 55 398T83 497T124 592T173 684Q174 679 178 679T186 678T194
676T197 668Q197 660 193 650T184 628T174 607T164 590L176 583Q180 590 190 606T213 639T239 668T262 681Q273 679 273 671Q273 641 257 595T222 497T186 390T170 288Q170 256 177 228T201 178T243 145T303 133Q332 133 366 143T425 170L375 231L402 249L421 231L430
238Q428 243 427 248T426 260Q426 274 431 285T451 297Q458 297 466 292T481 279T495 263T506 250Q528 277 547 309T580 377T602 448T610 521Q610 564 598 595T564 648T510 684T439 706Q433 707 416 709T380 715T348 722T333 730Q333 732 335 736Q368 736 405 731T479
714T547 682Q577 664 598 638Q578 666 548 685Q517 705 481 717T406 735T335 743Q337 753 337 754Q337 756 335 758Q326 758 314 755T288 746T262 735T241 725Q233 730 233 739Q233 758 245 771T274 794T310 807T344 812Q411 812 476 794T592 739T674 647T705 516Q705
474 693 429T662 339T617 255T566 183L568 182Q598 216 623 256T667 339T696 427T707 520Q707 596 674 652T588 745T469 801T335 820L310 819Q348 830 383 830Q427 830 475 818T568 781T647 724T702 648L693 642Q708 612 715 579T722 512Q722 465 711 419T681 330T635
247T578 172L584 166Q638 234 672 303T724 458Q714 376 676 302T587 163Q616 133 642 96T688 19T719 -65T731 -151Q731 -156 730 -166T726 -186T718 -204T706 -213L696 -209Q706 -192 710 -174T714 -135Q714 -113 708 -90Q709 -101 709 -111T710 -132Q710 -152
707 -170T693 -206L678 -197Q676 -203 671 -208T659 -213Q645 -213 636 -201T626 -175ZM277 8Q282 7 287 7H297Q316 7 342 12T396 27T450 51T495 84L490 89Q448 58 399 36T295 13L277 14V8ZM634 563Q627 537 628 509T624 447Q628 463 631 480T635 516V521L634 563ZM659
36Q669 11 680 -13Q690 -36 699 -60Q691 -35 681 -12Q671 12 659 36Z" />
<glyph unicode="R" glyph-name="R" horiz-adv-x="781" d="M647 31Q639 46 619 61T571 92T511 121T448 148T390 174Q371 182 357 190Q386 173 418 159Q455 142 492 124T565 86T629 40Q600 48 556 66T467 107T379 153T310 193L317 202Q289 221 260 246T215 301Q204
254 202 211T200 129Q200 115 207 103T214 79Q214 64 200 61Q192 80 188 99Q184 118 182 137Q182 117 184 98Q187 78 194 58L179 52L188 40Q186 29 180 20T160 10Q144 10 135 27T120 69T113 119T111 162Q111 196 111 229T114 296Q109 264 109 231T108 165Q108 130
112 93T124 22Q111 34 105 49T95 80T90 114T87 147L99 150Q95 165 94 180T93 212Q93 247 98 280T103 349V361L102 386H96Q94 338 91 290T86 193Q85 203 85 212V231Q85 304 92 374T108 517Q110 540 120 559T136 600Q140 597 146 597T157 596T166 592T170 582Q170
578 169 574L167 566L176 563Q183 574 194 584T219 594Q230 594 235 585T240 566Q240 560 239 541T235 497T229 444T224 390T219 348T217 326L241 380Q238 371 236 365T231 353T226 340T216 322V308L249 383Q265 383 280 383T312 387L322 389Q300 389 288 389T264
392Q304 392 343 393T424 395Q460 395 495 397T559 411T606 448T624 519Q624 566 612 595T578 640T521 662T444 668Q356 668 267 660T93 630Q91 638 90 644T85 656Q85 662 96 667T121 675T147 680T164 683V695Q157 694 140 693T103 692Q76 692 53 695T30 710Q30
722 56 733T124 753T214 770T308 782T389 790T439 793Q511 793 569 779T667 731T729 645T751 513Q751 448 727 403T661 329T567 287T457 273Q441 273 426 274T394 276Q405 269 430 257T487 230T553 199T616 167T662 138T680 116L675 110Q642 134 607 152T536 186T462
217Q427 232 392 252Q426 232 460 217L531 185Q567 169 601 152T668 110L655 98Q662 93 671 85T689 66T704 46T710 26Q710 13 698 13Q686 13 672 20T647 31ZM429 389Q409 389 388 389T344 388Q369 387 396 386T451 384Q486 384 519 388T579 407T620 447T636 515Q636
529 634 542T629 569H623Q629 545 629 520Q629 475 613 449T570 410T507 393T429 389ZM252 367Q292 365 333 365T419 364Q445 364 471 365T521 372Q510 370 499 370H478Q466 370 449 370T412 372T370 373T327 374Q304 374 285 373T252 367ZM214 290Q234 264 254
242T301 199Q277 216 253 240T214 290ZM362 298Q382 296 402 295Q421 294 438 293Q424 294 410 296Q394 299 378 299H370Q366 299 362 298ZM249 367Q248 364 244 355T235 336T226 316T222 304L224 306L249 364V367ZM353 279H350Q364 268 382 258L353 279ZM230 296Q232
291 236 285T248 271Q242 278 238 285T232 300L230 296ZM348 195Q351 193 353 192L348 195Z" />
<glyph unicode="S" glyph-name="S" horiz-adv-x="710" d="M10 67Q10 73 17 78T33 87T52 94T67 99Q115 93 163 89T259 85Q277 85 309 85T379 89T456 98T527 117T579 147T599 192Q599 214 590 231T565 262T530 285Q523 289 515 292Q523 288 530 284Q548 274 562
260T586 228T595 188Q595 164 578 148T533 120T472 103T405 94T344 91T300 90Q249 90 198 93T95 102Q113 107 131 109T169 112Q201 112 232 112T294 111Q331 111 367 112T441 120L444 108Q459 111 482 117T526 134T563 159T579 194Q579 223 558 245T505 284T431
315T351 338T276 356T220 371V365Q241 357 275 349T348 330T428 308T500 278T553 239T574 189Q574 173 559 161T524 141T482 127T450 120Q463 123 483 128T523 143T557 164T571 194Q571 222 549 241T491 275T409 302T315 328T220 360T138 405T80 469T58 558Q58
609 82 644T145 702T230 735T319 745Q382 745 442 727T557 677Q551 675 550 672T549 664T547 657T540 654Q536 654 525 657T500 665T475 674T459 680L456 671Q465 667 479 660T507 642T530 619T540 595Q540 582 528 582Q513 582 493 590T447 607T394 625T336 633Q317
633 292 630T243 617T203 591T187 549Q187 526 208 510T265 481T346 456T438 430T531 396T611 350T668 286T690 199Q690 150 670 116T617 60T542 25T456 6T368 -2T289 -4H189Q180 -4 165 -4T134 -2T108 4T97 14L98 19Q139 17 179 16T260 14Q298 14 336 14Q370 15
404 18Q387 17 370 16Q349 16 329 16H289Q195 16 104 22Q106 30 106 33Q106 37 104 41Q102 41 99 41T90 40Q79 40 66 41T40 45T19 53T10 67ZM624 93Q607 78 588 68Q571 59 553 51Q571 57 588 65Q607 73 624 93Z" />
<glyph unicode="T" glyph-name="T" horiz-adv-x="673" d="M677 632Q600 632 524 628T372 623Q385 622 397 622T424 621Q470 621 515 622T607 624H637Q652 624 668 623Q654 614 639 610T608 605T576 603T543 602L534 614Q511 610 488 609T442 608L353 609L354 600L521
601Q436 596 354 595Q355 582 356 570T359 544L347 541Q355 507 358 467T365 384T373 302T390 228L393 231Q387 265 382 304T373 385T364 467Q361 505 359 538Q363 485 371 427Q380 368 390 308T409 188T427 75Q429 58 432 39T435 -1V-13Q435 -20 433 -26Q426 -26
420 -28T406 -31Q395 -31 393 -20T390 -1H381Q380 -7 378 -16T371 -35T360 -50T345 -56Q335 -56 327 -42T313 -6T302 42T294 93T288 138T283 167Q273 209 265 259T250 360T241 461T237 556Q237 563 237 569T238 583V589Q238 593 237 597Q178 598 125 602T7 615Q8
621 8 628T9 641T14 651T27 656Q33 656 41 654L44 663Q32 668 16 679T0 705Q0 714 7 718T24 725T44 727T59 728Q95 728 130 724T202 720Q293 720 383 718T564 715Q582 715 599 720T635 725Q642 725 647 721T653 709Q626 704 598 701Q573 699 547 697Q573 697 598
699Q625 701 653 703V684L671 687Q679 685 686 680T693 664Q693 655 688 647T677 632ZM326 595Q328 566 331 531T339 460T347 390T356 326Q353 354 350 389T343 460T338 531T335 595H326ZM508 697H453Q428 697 403 698Q415 696 426 694Q440 691 457 691Q469 691
482 693T508 697ZM330 600H335V609H330V600Z" />
<glyph unicode="U" glyph-name="U" horiz-adv-x="779" d="M700 644Q696 628 695 611T693 576Q693 537 694 497T695 421Q695 350 685 278T645 145T563 44T426 -7Q517 2 572 46T657 156T697 300T707 453Q707 484 706 515T705 577V600Q705 612 706 623Q719 592 721
547T724 462Q724 420 723 388T716 313L706 298Q698 227 676 168T615 67T519 1T386 -23Q323 -23 263 -6T155 57L153 50Q200 4 259 -14T383 -32Q455 -32 510 -10T605 51T672 146Q697 199 711 264Q697 197 673 143Q649 87 610 47T516 -14T385 -36Q298 -36 236 -9T133
67T74 184T55 334Q55 378 61 420T77 505T95 589T109 675H133Q139 673 141 665T143 652Q143 638 141 625T137 598H146Q147 604 152 621T165 657T182 689T200 704Q206 704 209 697T213 681T215 663T216 648Q216 607 211 568T198 488T186 408T180 328Q180 275 192
231T230 156T297 107T395 89Q456 89 497 119T564 195T600 298T611 405Q611 447 607 488T603 571V574Q603 583 605 598T620 613Q622 613 623 586T626 523T627 456T628 415V375Q628 356 626 336Q631 362 631 387T632 438Q632 481 630 524L626 610H645Q643 620 643
640Q643 658 647 675T664 693Q670 693 676 687T686 673T694 657T700 644ZM548 124Q534 116 511 101T451 73Q465 76 479 81T507 94T531 110T548 124Z" />
<glyph unicode="V" glyph-name="V" horiz-adv-x="664" d="M564 331Q564 326 552 294T524 220T489 132Q471 89 458 59L486 139Q452 57 408 -24V-27Q387 -27 368 -27T327 -23Q321 -7 313 12T296 52T279 91T263 126L259 120Q238 163 214 207T166 291T124 365T96 420Q72
472 55 527T20 637Q27 641 32 644T43 647Q49 647 54 638T65 618T73 596T78 582L87 588Q82 607 79 626T76 665V673Q76 680 77 686T82 698T90 703Q97 703 115 673T155 597T203 496T252 389T294 297T320 242Q332 218 343 194T369 145Q413 242 441 345L497 551Q500
561 506 593T520 659T537 721T555 748L558 747Q542 678 528 611T497 475Q516 541 531 608T565 741L574 735Q576 742 580 754T591 779T604 801T620 810Q626 810 630 803T637 787T640 769T641 756Q641 754 639 748T635 738Q609 652 589 565T547 392T498 220Q472 137
435 56Q472 135 499 218Q527 303 550 389T595 563T644 735Q644 696 638 658T623 582T603 507T583 432H574Q551 325 517 222Q526 246 536 270T557 317L564 331ZM300 0Q292 18 282 45T264 96Q277 74 287 50T300 0ZM497 475Q477 398 454 322Q437 266 415 211Q438 265
456 322Q480 397 497 475ZM421 -32Q407 -30 393 -30H365Q375 -29 384 -29H418L442 21H446L421 -32ZM311 -30Q309 -25 307 -18T300 -1Q304 -7 313 -15T327 -32L311 -30ZM446 22H442Q444 26 448 35T458 58L446 22Z" />
<glyph unicode="W" glyph-name="W" horiz-adv-x="925" d="M405 213Q418 170 431 126T464 45T513 -20T588 -57Q545 -54 515 -29T463 32T429 111T410 188Q407 164 401 135T384 78T361 24T329 -20L244 -35Q201 -11 169 33T112 134T71 255T43 383T27 504T20 607L45
610Q50 607 53 596T59 570T62 543T63 525L72 528Q72 536 73 557T78 601T89 641T109 658Q115 658 121 627T137 547T157 435T183 310T219 190T265 93Q274 137 288 188T317 284T341 359T354 390L461 393Q474 384 485 361T506 306T525 240T544 171T565 109T589 63L598
62Q613 62 628 81T659 129T689 194T714 263T734 324T746 365Q750 380 754 406T764 464T774 526T786 583T799 625T814 642L819 641Q789 448 733 261Q764 353 784 447T825 635L833 627Q834 634 839 652T850 690T865 725T881 740Q887 740 891 730T898 707T901 682T902
665Q902 662 899 652T895 638Q887 604 876 544T848 413T810 267Q790 196 764 136Q791 196 813 266Q836 340 853 410T884 541T905 635Q905 584 897 530T876 420T847 311T816 209L801 203Q792 171 776 127T736 44T679 -23T605 -51Q574 -51 550 -38T506 -2T472 50T446
110T425 172T409 230Q407 223 405 213ZM598 -34Q629 -34 656 -15T708 38Q682 12 656 -7T598 -26Q572 -26 551 -12T512 26T481 79T456 138T437 193T423 238Q427 214 434 185T452 125T475 67T507 16T547 -20T598 -34ZM609 -56Q643 -50 671 -31T721 16T760 75Q769
92 777 109Q770 91 761 72Q745 38 723 10T673 -37T609 -56ZM588 43Q576 46 564 62Q553 78 547 95Q550 86 554 76Q559 66 565 57T580 43T598 37Q614 37 629 51T658 87T683 131T702 174Q694 156 683 133T658 89T629 55T598 41Q594 41 588 43ZM403 167Q404 174 405
180T408 194L404 206Q402 196 401 187T397 167H403ZM781 119Q779 114 777 109Q779 115 781 119ZM785 128Q783 123 781 119Q783 124 785 128ZM788 135Q786 132 785 128Q786 132 788 135Z" />
<glyph unicode="X" glyph-name="X" horiz-adv-x="725" d="M644 5Q620 65 595 106T540 178T478 237T404 297V296Q439 268 473 237T538 170T593 95T631 11Q618 20 606 36T581 71L557 108Q545 127 533 140L543 149Q506 182 471 216T398 283L394 275Q423 251 450 226T504
172Q478 199 450 223T392 271Q358 208 325 146T258 21Q255 14 250 -1T239 -33T226 -61T210 -74L203 -71Q214 -45 222 -19T242 33Q229 8 219 -17T197 -68Q192 -58 182 -50T160 -41Q158 -41 147 -43T132 -50L127 -47Q136 -42 143 -29T157 -1T167 24Q171 34 173 35Q173
36 172 37Q170 38 170 40V41Q159 20 148 1T123 -38Q121 -28 121 -23Q121 -7 129 7T142 36Q153 53 161 73T178 112L188 106Q210 168 245 230T307 353L299 358Q272 300 241 236T181 115Q209 173 235 231T287 348Q261 365 233 383T177 421T124 462T77 507Q60 527 44
546T10 584Q17 589 21 596T34 605Q43 601 51 595T65 581L71 590Q63 601 57 615T51 643Q51 651 55 657T68 664Q74 664 94 651T141 618T199 574T259 528T310 489T342 465Q363 508 378 533T409 579T441 621T481 678Q486 670 496 668T506 655Q506 650 500 640T491 626L500
620Q511 630 524 639T553 648Q571 648 571 630Q571 613 555 582T518 514T476 444T446 388Q460 377 485 354T541 300T602 235T658 169T699 109T715 65Q715 56 705 54Q691 80 675 104Q660 126 644 147Q659 126 672 104Q686 80 699 54L683 45L696 24Q696 13 693 3T676
-8Q667 -8 660 -4T644 5ZM475 339Q502 311 529 284T582 228Q560 265 532 288T475 339ZM269 83Q275 94 283 110Q293 129 303 148T322 185Q329 199 334 207Q297 146 269 83ZM290 289Q276 266 265 242T242 193L290 289ZM276 369L273 363L289 352L292 360L276 369ZM268
81V80V81Z" />
<glyph unicode="Y" glyph-name="Y" horiz-adv-x="654" d="M184 -24Q184 -19 189 7T200 65Q195 45 190 26T178 -12Q171 2 171 19Q171 51 179 81T193 144H203Q204 182 208 220T212 297Q212 334 204 369T175 435L169 432Q176 420 182 403T194 366T202 329T206 297Q206
260 204 223T193 150Q196 179 199 208T202 267Q202 312 191 352T162 431T121 505T71 576Q52 602 40 629T10 683Q18 685 23 690T36 697Q44 694 50 686T62 670L71 676Q63 697 63 716Q63 724 66 735T81 747Q93 747 112 729T153 681T199 617T242 548T276 488T296 448L313
459L319 453Q333 474 351 491T387 526T423 560T453 600L447 603Q418 566 384 533Q352 503 321 471Q369 524 414 575Q461 629 509 686L551 732Q554 730 558 728T568 724T576 719T580 712Q580 709 578 705T573 698L582 692Q599 707 620 707Q631 707 637 701T644 684Q644
661 628 634T587 577T533 518T475 462T426 415T395 380Q391 379 385 373T371 360T355 348T340 342L328 346Q330 351 342 364T369 391T397 417T415 433Q402 429 388 418T360 393T336 366T322 346Q322 317 320 279T315 199T306 118T296 47T284 -3T270 -23Q268 -23
264 -21Q269 15 274 51Q279 84 284 117L258 -21L244 -17Q242 -28 235 -42T215 -56Q204 -56 194 -46T184 -24ZM305 426Q317 432 332 446T364 476T394 510T420 539Q389 513 363 483T303 431L305 426ZM219 177Q223 197 226 217T229 259Q229 297 221 340Q224 307 224
274Q224 250 223 226T219 177ZM285 123Q292 165 297 206Q302 246 304 287Q300 246 295 206Q290 165 285 123ZM284 120V117Q284 119 284 120Z" />
<glyph unicode="Z" glyph-name="Z" horiz-adv-x="722" d="M654 -79Q556 -66 457 -65T258 -55Q351 -66 443 -71T629 -85Q605 -91 581 -93T531 -95Q465 -95 404 -90T277 -79L268 -67Q217 -65 160 -56T54 -27Q45 -7 38 13T20 52Q31 77 46 95T81 130Q135 176 182 229T273
337T361 448T456 554H231Q168 554 107 548V550Q107 556 105 562T103 571Q103 578 114 582T140 588T168 590T186 591V600Q180 600 159 602T115 607T74 617T56 633Q56 641 76 647T131 659T207 668T294 674T379 678T453 680Q472 680 492 677T533 669T574 662T611 658Q617
636 622 607T633 548Q607 535 571 498T494 412T409 307T323 201T244 111T178 54Q232 43 286 37T394 25Q408 24 431 24T479 23T531 23T577 20T611 15T624 5L623 0Q543 2 464 3T305 13Q383 3 462 1T620 -6L617 -24Q619 -24 621 -24T628 -23Q638 -23 652 -24T680 -29T702
-38T712 -51Q712 -58 705 -62T688 -70T668 -75L654 -79ZM27 46L32 58Q37 72 50 86T75 110Q163 186 239 272T385 451L373 456Q323 395 276 334T175 215Q156 194 136 176T97 138T59 99T24 55L27 46ZM60 -17Q74 -25 91 -30T128 -39T166 -44Q178 -45 191 -46Q160 -41
130 -31Q95 -19 60 -12L42 37Q44 49 62 69T104 113T150 158T184 194Q175 183 152 163T104 121T61 78T42 46L36 40L57 -13L60 -17ZM157 34Q189 27 221 22Q252 17 283 14Q252 18 223 25Q194 32 162 39L157 34ZM111 -52Q82 -45 53 -37L57 -33Q84 -45 112 -51Q137 -57
163 -63Q137 -58 111 -52Z" />
<glyph unicode="[" glyph-name="bracketleft" horiz-adv-x="375" d="M280 751Q287 750 301 747T329 739T354 727T365 711Q365 700 351 696T316 689T270 687T224 685T188 678T174 663V470Q174 358 173 247T163 22Q189 25 214 30T266 36Q271 36 282 33T294 24Q294
21 279 18T243 12T199 6Q179 4 165 3Q196 5 227 9Q260 13 292 15L293 -1Q303 1 314 1Q329 1 343 -3T357 -20Q357 -31 344 -39T322 -53H316Q268 -53 222 -60T127 -67H121L69 -66Q71 24 75 113Q80 198 80 284Q78 197 74 113Q71 24 66 -67L100 -69Q117 -70 134 -70Q178
-70 221 -66T308 -61Q289 -71 267 -76T221 -85T174 -89T129 -90Q109 -90 90 -89T50 -87V21H60Q59 38 59 54T58 87Q58 165 63 241T68 396Q68 425 67 452T64 509L60 506L58 508Q58 448 56 389Q54 344 52 298Q54 418 53 537Q53 669 59 804Q84 805 108 806T157 808Q202
808 246 803T336 797L334 791Q335 787 336 783T337 774Q337 765 327 763T311 761L280 762V751ZM142 20Q145 79 147 137T153 254Q145 222 143 191T141 128Q141 108 141 87T142 46V20ZM110 2L131 -3L129 3L110 2ZM52 272Q52 285 52 298Q52 285 52 272Z" />
<glyph unicode="\" glyph-name="backslash" horiz-adv-x="490" d="M214 548Q231 516 254 478T303 398T352 311T396 223T428 138T440 62Q440 37 437 13T430 -37Q427 -36 425 -36T419 -35Q416 -35 413 -35T408 -36Q403 -36 400 -33T396 -19V-15L397 4H386Q384 -3
381 -11T373 -28T361 -41T346 -47Q334 -47 328 -31T318 7T314 50T312 79Q306 113 285 163T234 270T172 386T113 496T68 586T50 642Q50 648 52 653T62 659Q74 621 91 585T126 513T164 441Q181 408 198 375Q183 408 166 441Q147 477 129 512T95 584T67 659L83 664L76
685Q77 694 81 703T97 712Q106 712 114 708T129 698Q139 657 157 615T197 530T243 447Q266 408 287 373Q267 409 245 446Q222 485 201 525T163 606T139 690Q150 681 159 665T177 631T193 595T208 564L199 554Q221 520 240 485T279 415T317 345T359 276L364 279Q329
348 289 413T214 548ZM201 370Q200 372 198 375Q199 372 201 370Z" />
<glyph unicode="]" glyph-name="bracketright" horiz-adv-x="416" d="M335 201Q335 162 339 124T348 48T358 -29T366 -105Q343 -109 321 -112T275 -116Q267 -116 250 -116T209 -114T162 -111T117 -106T84 -98T69 -86L71 -81Q113 -86 154 -90Q195 -95 236 -97Q195
-94 155 -88Q115 -82 74 -76L79 -65Q74 -64 63 -61T40 -54T19 -44T10 -32Q10 -26 15 -21T27 -13T42 -7T54 -2L150 -18Q198 -26 247 -28L246 -25Q201 -23 159 -14T73 3Q85 5 97 6T121 8Q152 8 182 5T243 -5Q234 19 229 53T221 125T217 198T216 260Q216 338 220 416T225
572Q225 591 225 609T223 646Q178 646 134 651T44 657V661Q44 668 43 672T42 680Q42 689 54 691T75 693H79L103 692V703Q96 704 81 706T51 714T24 725T12 741Q12 752 37 758T94 767T156 770T195 771Q230 771 265 771T336 769Q341 712 344 656T348 543Q348 457 342
372T335 201ZM219 246Q219 238 219 217T221 169T225 111T230 56T239 14T251 -5Q241 47 234 98T227 203Q227 269 229 333T231 463H226Q224 409 222 355T219 246ZM241 277Q240 264 240 252V227Q240 219 240 200T242 155T244 102T249 52T256 13T267 -5Q255 65 248
135T241 277ZM343 -58Q338 5 329 68T318 195Q317 188 317 182V169Q317 112 327 56T343 -58ZM250 -29L276 -28L247 -25L250 -29Z" />
<glyph unicode="^" glyph-name="asciicircum" horiz-adv-x="642" d="M396 889Q399 852 405 822T423 762T455 701T509 631Q514 625 524 617T544 600T562 583T573 569L569 559Q542 574 517 597T470 647T431 704Q415 732 403 761Q414 732 430 704Q448 674 469 647T514
595T565 555L557 541Q568 538 580 530T592 508Q592 494 578 489T553 483Q517 501 488 527T434 584T389 648T348 716L346 712Q381 646 426 585T536 483Q514 483 494 495T455 524T422 562T394 598L402 605Q382 626 367 649T337 698L334 693Q344 671 356 652L380 614Q367
632 355 651T332 691Q289 623 237 565T126 451L107 474L128 502L120 510Q109 502 97 497T71 492Q63 492 57 496T50 510Q50 519 59 535T82 570T114 611T148 652T178 688T199 715L316 896L396 889ZM335 703L331 710L283 642L286 635L335 703ZM346 720L341 728L340
725L344 717L346 720Z" />
<glyph unicode="_" glyph-name="underscore" horiz-adv-x="590" d="M524 -193Q532 -193 536 -199T540 -212Q540 -223 533 -231T518 -248Q506 -241 490 -235T455 -225T419 -218T386 -216H381L337 -217Q359 -219 381 -219T426 -223T470 -233T511 -253L494 -260Q480
-260 472 -255T450 -248L439 -237Q410 -237 382 -234T325 -230Q301 -230 279 -236V-242Q236 -244 194 -247T109 -253Q98 -248 86 -246T61 -243Q61 -241 61 -240T62 -236Q62 -228 60 -218L73 -207L80 -208V-197Q69 -192 60 -183T50 -159Q50 -148 57 -142T74 -132T96
-129T115 -128Q163 -128 211 -124T308 -119Q316 -119 336 -120T381 -124T432 -131T481 -140T517 -151T532 -163Q532 -166 530 -172Q488 -159 445 -153Q403 -148 361 -141Q402 -151 443 -157Q486 -163 528 -177L524 -193ZM436 -247Q404 -243 371 -242T304 -240Q314
-239 324 -239H344Q367 -239 390 -240T436 -247Z" />
<glyph unicode="`" glyph-name="grave" horiz-adv-x="273" d="M25 775Q27 784 33 784Q34 784 38 782L42 792Q36 800 33 810T30 828Q31 833 32 838T36 847Q39 848 45 851T56 854Q84 854 112 837T164 797T206 748T234 708Q237 702 245 701T253 694Q253 686 249 678Q227
689 213 705T184 745Q195 721 212 703T246 674Q244 670 243 667T240 658Q245 658 246 654T247 644Q247 631 241 621T226 605L222 608Q192 633 169 654T121 701Q138 678 162 653T219 601Q211 596 203 596Q198 596 192 600T179 609T166 621L156 631L163 639Q149 646
139 657T121 679T104 699T83 714Q83 712 79 710Q99 695 115 675Q131 656 151 635Q137 649 118 667Q97 687 77 705T42 736T20 751Q22 756 23 762T25 775ZM155 632Q153 633 151 635Q153 633 155 632Z" />
<glyph unicode="a" glyph-name="a" horiz-adv-x="680" d="M401 262Q374 262 361 263T336 264Q306 264 283 261T244 249T220 223T212 178Q212 137 221 118T248 90T291 79T347 70Q365 68 383 68T419 67H491Q441 70 392 70T303 79T239 107T214 168Q214 201 222 218T245
244T280 254T323 256Q351 256 380 253Q357 246 334 243T290 236T256 227T236 211V166L228 162Q232 137 235 125T255 106T306 95T410 82H482Q501 82 504 83T509 85L500 139Q498 159 495 175T487 209Q486 206 481 206Q486 189 489 170T495 134T499 105T503 91L497
89Q495 88 491 88H485Q478 88 469 89T446 91H413Q374 91 341 95Q310 99 287 105Q310 100 343 97Q378 93 408 93Q421 93 435 93T467 94H500Q497 97 493 97H491Q487 166 473 229T428 339T347 415T222 444Q201 444 180 441T137 433Q139 435 139 437Q139 442 135 446T131
456Q131 462 143 467T197 478Q195 480 195 484T194 490Q140 490 110 492T80 507Q80 512 92 521T128 538T183 553T256 560Q333 560 388 537T480 475T541 387T579 289T601 193T614 112Q614 106 614 100T615 86Q615 57 605 36T576 0T533 -22T480 -30Q458 -30 423 -29T356
-23Q335 -18 310 -16T259 -7T209 10T165 43T134 102T122 193Q122 245 146 276T203 325T272 348T329 354Q357 354 366 350T375 342Q375 339 374 337Q349 337 310 335T235 322T172 289T146 225Q155 262 176 283T226 315T283 328T337 331H371Q367 327 367 323Q367
319 371 316H410Q426 313 433 306T440 292Q440 283 431 276T401 262ZM233 20Q261 9 290 3T349 -5Q378 -8 403 -8Q383 -6 363 -1Q342 4 326 8Q309 12 293 13T259 18T223 27T187 47Q206 30 233 20ZM243 125Q242 126 249 119Q255 113 265 110Q260 112 250 115Q239
119 239 127L243 125ZM268 110Q267 110 265 110Q266 110 268 110Z" />
<glyph unicode="b" glyph-name="b" horiz-adv-x="646" d="M239 504H256Q314 504 371 484T473 426T545 338T573 225Q573 160 555 117T504 45T425 2T323 -24Q358 -21 401 -11T483 24T548 95T574 215Q574 306 523 379T371 489Q346 500 320 506T266 513Q275 518 290
518T314 519Q353 519 394 503T473 459T538 394T581 314Q576 312 572 306Q580 281 584 257T588 208Q588 180 584 152T566 97T528 46T463 3T365 -28T227 -45Q222 -48 213 -48T195 -49H181Q166 -49 150 -44T121 -25T100 11T92 68V79Q91 75 89 75Q86 75 86 77V72Q86
54 88 32T99 -11T129 -44T188 -58Q197 -58 206 -58T227 -54Q300 -51 366 -38T484 4T565 85T595 216Q595 242 591 269Q592 258 594 248Q596 232 596 216Q596 194 594 166T581 109T550 52T494 3Q457 -19 418 -31T343 -50T279 -58T236 -60H224Q215 -60 206 -61T185
-63H180Q171 -63 158 -61T130 -51T103 -26T86 24Q84 35 83 46T80 66Q80 86 83 103T86 132V315L50 504Q51 524 52 548T55 597T58 648T59 696Q59 704 59 711T58 726Q61 723 64 723Q68 723 72 725T81 728Q84 728 87 725T92 714T96 691T97 651H106Q110 706 120 737T142
768Q155 768 161 736T169 656T174 550T182 441Q193 382 200 316T209 186Q209 139 208 119T205 90V63L239 66Q271 66 305 69T362 81Q404 88 427 101T463 131T478 165T481 199Q481 230 477 258T459 311T421 356T356 393Q312 410 293 413T273 425Q273 426 275 432Q317
430 359 412Q398 395 430 369Q399 395 361 412Q320 431 278 435Q281 439 281 445Q281 448 278 453H261Q254 453 246 452T233 450Q209 452 200 457T190 469Q190 479 206 489T239 504ZM502 218Q502 172 491 143T460 98Q486 116 494 144T503 215Q503 222 502 228Q502
233 501 239Q501 233 501 228Q502 223 502 218ZM589 281L590 277L589 281ZM433 366Q431 367 430 369Q432 368 433 366ZM590 276Q590 274 590 273Q590 274 590 276Z" />
<glyph unicode="c" glyph-name="c" horiz-adv-x="575" d="M525 53Q481 35 435 25T340 15Q296 15 254 25T177 57T116 114T75 200Q78 156 99 125T151 71T221 34T294 11Q299 10 308 10Q367 10 415 20T513 41Q497 28 475 19T426 3T370 -7T312 -11H301Q296 -11 291
-10L284 3Q248 7 209 21T138 60T84 123T62 209Q62 250 73 289T102 365Q101 364 99 364Q96 364 96 368Q78 332 66 294T53 210Q53 162 75 125T127 63T190 21Q219 7 238 1Q207 10 175 27Q141 45 114 72T68 136T50 217Q50 280 73 335T134 430T221 494T324 518Q333 520
346 520T369 521Q401 514 433 504T498 476Q494 474 493 471T490 463T487 455T478 452Q473 452 463 455T435 464Q432 461 432 455Q456 443 465 428T474 398Q474 391 459 386Q446 386 419 391T357 396Q342 396 324 395T288 389T254 376T228 353Q216 337 206 317T188
277T176 237T171 203Q171 189 184 172T217 139T264 112T318 101Q331 101 349 105T387 114T426 124T458 128Q470 128 473 126T477 116Q454 108 429 100Q413 95 398 90L429 98Q453 105 477 113Q477 108 477 104T483 95L493 99Q501 102 510 107Q530 107 537 103T545
91Q545 86 544 83T540 76T533 67T525 53ZM162 173Q170 155 186 139T222 110T266 89Q288 81 310 80Q290 82 268 90Q245 98 225 110T188 139T162 173ZM392 89Q395 90 398 90Q395 90 392 89ZM242 0Q240 0 238 1Q240 0 242 0Z" />
<glyph unicode="d" glyph-name="d" horiz-adv-x="658" d="M578 730Q580 701 581 674T582 617Q582 557 579 497T570 374T560 247T551 112Q551 101 551 90T548 64V52Q548 49 546 44T542 37Q529 22 519 15T499 4T482 0T466 -2H472Q475 -2 483 -1T502 2T522 9T536
22L545 40Q551 51 552 63T554 88T555 113T557 136Q560 199 565 262T576 389T585 518T589 652Q589 673 589 692T587 730Q590 726 593 718T599 691Q604 680 605 667T608 640Q608 572 603 509T593 382L584 379L575 208Q575 136 569 90T557 28V25Q542 10 532 3T512
-9T496 -13T480 -14H416Q389 -11 358 -11T293 -5T224 24T152 94Q152 92 151 91T149 88Q182 43 228 14T329 -20H413Q425 -22 437 -22T465 -23Q480 -23 504 -19T551 7Q555 12 556 14T560 22L563 28Q568 37 570 46T575 65Q575 54 574 46T566 22L563 19L551 1Q542 -8
531 -13T510 -20T492 -24T479 -26H446Q433 -26 425 -26T412 -25T404 -23H374Q365 -23 356 -23T337 -24Q290 -24 246 -2T164 62T97 159T53 283Q53 294 52 304T50 325Q50 362 61 400T103 470T184 520T313 540Q349 540 383 539T452 535Q448 532 448 528Q448 523 450
520T452 512Q452 507 445 504T413 500Q405 500 395 500T371 502V493Q419 486 448 475T485 454L487 452L491 496Q494 523 494 557Q494 592 492 626T490 679Q490 703 493 711T501 719Q505 719 507 702T511 664T513 621V592Q513 563 512 534T509 475Q512 513 514 549T516
624Q516 647 515 669T512 715Q518 709 521 709Q525 709 527 715Q526 723 525 732Q524 740 524 748V763Q529 775 537 781T551 788Q568 788 581 751L578 730ZM416 430Q383 428 342 426T263 416T200 390T170 343Q170 310 184 269T221 192T273 129T335 100H392Q397
100 399 100T407 97H431Q446 94 461 94Q461 178 468 266T485 440Q472 430 416 430ZM488 223Q488 212 487 201T485 175Q496 231 498 293T503 412Q498 364 496 318T488 223ZM575 115Q575 126 576 137T579 162Q578 132 578 106T575 68Q575 73 575 77T576 87Q576 95
576 102T575 115ZM590 277Q588 272 587 266T584 252L588 313L590 277ZM581 199Q581 190 581 181T579 164Q579 184 580 204T583 242L581 199ZM482 137Q483 141 483 145T485 154V165Q484 163 484 162T483 159L482 157V137ZM479 89Q480 98 481 107T482 127V130L478
91L479 89Z" />
<glyph unicode="e" glyph-name="e" horiz-adv-x="573" d="M414 -18Q376 -31 356 -32T321 -35Q265 -35 220 -14T143 43T94 127T76 231Q76 263 82 297T100 365T131 428Q149 457 174 480Q148 459 130 430Q111 401 98 368T79 299T73 230Q73 188 86 141T130 53T207
-15T323 -42Q355 -42 390 -33Q352 -58 305 -58Q267 -58 234 -47T172 -15T120 34T81 94L90 102Q73 136 66 170T58 239Q58 290 72 337T111 426L135 459Q141 470 152 481T178 502T207 521T237 537Q273 555 309 569T393 591L389 594Q297 585 233 550T129 463T71 352T53
233Q53 202 58 171T75 108Q50 168 50 235Q50 301 72 366T141 486Q201 541 272 570T409 600Q430 600 452 593T492 572T521 534T533 478Q533 451 520 412T482 337T418 275T330 249H297Q260 257 230 267T172 284Q168 268 168 254T167 225Q167 196 173 169T194 118T229
80T282 60Q301 56 315 56T338 55T352 52T357 42Q347 39 337 38T315 37Q280 37 252 48T204 75Q227 52 259 43T322 33Q339 33 357 36Q355 30 355 29Q355 23 360 21Q364 22 374 26T394 35T415 43T429 47Q434 47 438 46T442 34Q442 24 435 10T414 -18ZM276 378L298
374Q309 372 318 372Q328 372 341 378T368 397T392 427T408 468L410 474Q396 474 368 467T310 449T254 422T218 388Q233 385 247 383T276 378ZM230 304Q232 306 232 310T233 316L186 333L181 319L230 304ZM202 77Q195 85 188 93Q182 100 178 107Q187 90 202 77Z"
/>
<glyph unicode="f" glyph-name="f" horiz-adv-x="520" d="M461 517Q416 509 374 501T284 485V484Q327 487 370 496T458 508Q453 496 433 488T396 479Q380 479 380 487Q356 477 332 475L284 471V463Q308 467 331 470Q351 472 372 476Q328 466 284 460V382Q281 331
281 278T278 173T266 69T236 -32Q227 -59 214 -86T188 -136T162 -173T140 -187Q136 -187 134 -182Q150 -159 168 -134T200 -80Q211 -52 219 -26T234 28Q218 -31 191 -82T131 -176Q129 -171 126 -169T116 -167L98 -194Q78 -215 66 -215Q58 -215 54 -206T50 -182L56
-158L68 -143Q90 -117 107 -93T136 -43T158 15T176 87Q171 63 164 38T147 -10T128 -52T104 -85L62 -137Q70 -113 82 -93T107 -49T132 2T152 69L161 70Q169 124 171 176T174 284Q174 323 174 363T172 445Q170 444 167 444H162Q163 391 165 341T168 242Q168 200 164
159Q161 120 152 81Q160 116 162 152Q165 189 165 227Q165 279 162 333T158 444Q152 443 144 443T119 442Q96 451 74 451V455Q74 459 74 463T73 473Q73 485 84 485L92 496Q78 501 71 512T64 534Q64 549 74 555T99 563T131 566T162 567Q166 606 175 649T204 735T253
814T329 877Q372 903 418 908T508 914H527Q536 914 545 913L546 892Q546 888 544 885T536 881T516 878T482 877Q482 875 482 872T485 868Q527 865 548 850T570 827Q570 818 551 813T503 803T442 789T383 766Q301 709 289 579Q311 581 333 585T377 589Q385 589 395
594T413 599Q418 599 420 597T428 586Q404 573 382 568Q392 570 404 572T428 580Q430 575 431 571T434 565Q435 565 437 566Q441 568 443 568Q454 564 459 554T465 534Q465 529 465 525T461 517ZM185 136Q189 158 192 181T196 229Q196 267 191 306Q187 342 185
377Q186 344 187 312Q189 277 189 243Q189 206 187 171T179 100V99L185 136ZM257 180Q254 111 237 37Q254 108 258 179Q263 248 263 315Q261 248 257 180ZM288 562Q297 559 309 559Q323 559 337 562T365 568Q345 566 327 564T288 562ZM380 478Q376 477 373 476Q376
477 380 478Z" />
<glyph unicode="g" glyph-name="g" horiz-adv-x="625" d="M444 352V354L418 362L435 391L552 355Q552 322 555 288T563 217T571 144T575 68Q575 17 566 -35T537 -134T483 -221T399 -287Q372 -305 330 -320T246 -338H234Q194 -338 167 -330T124 -311T102 -291T95
-279Q95 -275 99 -275Q130 -298 166 -308T238 -318Q299 -318 351 -294Q401 -270 441 -234Q401 -269 350 -292Q298 -315 239 -315Q204 -315 171 -305T108 -272Q111 -272 115 -271T119 -265L111 -258Q104 -251 95 -240T78 -214T70 -182Q70 -165 83 -165Q93 -165 106
-178T137 -206T180 -235T241 -248Q291 -248 331 -229T401 -175Q372 -207 334 -225T246 -243Q216 -243 190 -233T147 -206Q164 -211 189 -217T245 -223Q299 -223 340 -196T412 -126L426 -128Q449 -88 458 -43T468 53Q468 87 465 122T457 193L452 186Q457 151 459
118T462 52Q462 12 454 -27T429 -100Q446 -65 453 -26T460 59Q455 85 455 111T453 163L451 183Q444 173 430 155T397 120T355 89T305 76L280 73Q227 73 185 100T113 168T67 259T51 355Q50 360 50 363V372Q50 433 72 477T132 550T223 591T335 605Q405 605 477 586Q471
584 471 579Q471 575 472 572T474 564V562Q471 557 460 557Q449 557 428 560T369 568V556Q403 552 427 544T466 525T487 506T494 491Q494 487 490 486T480 484Q469 484 441 488T369 492Q328 492 292 487T230 468T188 429T173 364Q173 331 183 301T209 248T244 212T281
198Q293 198 310 215T347 257T385 310T416 360L444 352ZM408 151Q398 141 386 130T360 109T327 92T288 82L295 79Q325 83 350 96T394 128T429 165T455 198L453 210Q444 197 432 181T408 151ZM481 54Q481 10 472 -32Q463 -72 447 -107Q464 -71 474 -28Q485 16 485
62Q485 85 484 109T480 157L475 216L470 210Q474 171 477 132T481 54ZM555 60Q555 113 551 163T540 262Q544 216 549 171T554 77Q554 44 551 8T538 -65T513 -135Q498 -167 475 -195Q515 -149 532 -91Q550 -31 555 28V60Z" />
<glyph unicode="h" glyph-name="h" horiz-adv-x="607" d="M189 13Q186 5 186 1Q186 -2 188 -8L69 11V15Q62 15 62 27Q62 35 64 43T67 56Q75 104 79 147T87 238Q87 332 83 408T78 559Q78 622 84 672T90 776Q90 814 87 853L110 857Q113 857 116 854T121 840T124
811T126 763H138Q140 831 147 871T166 911Q176 911 183 890T194 832T201 750T204 655V529Q224 551 254 569T322 587Q376 587 413 561T476 496T514 414T534 337Q539 317 543 292T551 241T555 189T557 141Q557 138 557 125T554 96T548 69T537 57Q535 57 534 58Q536
81 537 103T538 148Q538 201 531 253Q525 301 513 350Q523 306 528 263Q534 217 534 171Q534 116 528 64Q518 60 514 45T505 13T495 -17T474 -31Q469 -31 466 -25T459 -9T455 12T453 34Q453 41 455 46T459 58Q463 82 464 106T466 157Q466 187 463 224T453 299T435
372T408 435T369 479T319 496Q297 496 280 478T249 431T226 368T209 302V297Q215 328 224 360T248 419T283 467T330 493Q354 493 373 476T406 432T431 370T448 301T458 237T461 186Q461 154 458 123T450 61Q445 104 443 151T436 244T421 334T390 418L399 421Q390
438 383 446T369 458T354 465T336 478H321Q287 478 260 414T210 234L207 171Q213 212 222 264T245 363T277 441T321 473Q332 473 347 466T378 438Q364 454 350 462T325 470L318 469Q298 469 283 444T256 380T234 290T217 189T203 92T189 13ZM169 -3Q175 -1 176
3T180 7L187 60L171 10L168 4Q151 5 135 8Q121 10 106 12T78 17Q75 26 75 30Q75 31 75 32T76 34L69 35Q71 19 72 17T77 12L169 -3ZM411 535Q391 549 368 557T320 566Q280 566 251 545T204 497V494Q213 507 224 519T250 541T282 557T323 563Q368 563 403 537T465
473Q454 490 442 506T411 535ZM511 357L513 350L511 357Z" />
<glyph unicode="i" glyph-name="i" horiz-adv-x="326" d="M76 52Q80 80 83 117T90 193T96 267T102 331Q97 304 93 269T85 197T77 124T70 58Q55 68 55 85Q55 105 56 118T59 150L70 160Q69 165 69 169V179Q69 202 74 231T85 291T97 350T102 400L90 403Q88 379 84
349T76 286T67 221Q65 204 63 189Q65 217 68 249Q73 295 78 340T89 430T99 511Q99 526 106 543T117 580Q123 578 127 578H134Q144 578 147 574T150 561V556L159 553Q167 568 178 577T200 586Q224 586 224 535Q224 508 219 478T213 418V405Q213 373 206 336T191
260T175 185T168 119Q168 112 169 104T170 89Q170 74 165 71T151 67Q151 80 150 99T149 133Q147 122 147 103T145 67H130V55Q121 39 106 39Q99 39 90 43T76 52ZM282 820Q265 810 251 794T222 763Q231 769 238 776T252 790T268 804T288 817Q291 813 293 810T296
804L273 781Q273 783 270 785T264 787Q261 777 254 771T240 760T226 749T216 733V731Q216 730 219 730L269 777L250 758Q236 744 221 730T192 704T175 693L174 694Q167 696 160 696T144 697Q144 705 142 714T139 728Q139 733 144 733Q144 736 141 742T133 757T126
775T122 795Q122 805 130 814T150 831T173 843T189 850Q193 850 192 854T195 859L213 853Q211 848 201 837T185 820Q192 825 201 835T216 850Q221 848 225 846T231 844L234 847Q241 847 249 844T265 837T277 828T282 820ZM61 165Q62 176 63 187Q62 175 61 165Z"
/>
<glyph unicode="j" glyph-name="j" horiz-adv-x="338" d="M-46 -101L-47 -125Q-48 -133 -48 -140Q-48 -205 -22 -209Q-31 -206 -37 -188Q-43 -170 -43 -142Q-43 -127 -40 -113L-17 -189Q-18 -189 -14 -188T-7 -184L2 -194Q65 -157 95 -93T125 67Q125 106 122 148L119
146Q119 90 116 40T101 -52T67 -126Q46 -157 12 -177Q46 -155 67 -124Q88 -92 99 -55T113 24T116 105Q116 126 116 146T115 187Q115 219 116 249T118 314Q118 347 118 380T117 445Q121 455 125 474T135 513T146 547T155 562Q163 562 171 559T179 543Q179 537 179
532T178 519H187Q198 551 210 564T233 578Q249 578 249 537V529Q249 450 244 357T238 174Q238 159 238 143T239 111Q239 68 234 12T210 -99T156 -203T62 -278Q45 -286 27 -293T-15 -300Q-56 -300 -80 -279T-118 -232T-136 -180T-140 -145Q-140 -128 -135 -123T-126
-118L-121 -119Q-121 -135 -120 -154T-114 -193T-100 -230Q-91 -247 -77 -258Q-90 -247 -98 -230Q-106 -213 -110 -194T-116 -155T-118 -122H-100V-92Q-94 -78 -88 -73T-76 -68Q-65 -68 -59 -77T-46 -101ZM298 802Q279 802 261 793T235 775Q247 781 261 788T298
796Q298 782 280 775L271 784Q268 777 262 774T249 769T238 763T232 751L235 748Q248 765 277 775L220 724L208 721Q204 724 193 730T181 742H180Q177 742 167 744T145 751T124 763T115 778Q115 786 122 797T139 820T159 841T175 853Q193 856 211 866T241 877Q243
875 245 871T250 865Q245 860 239 858T226 850L253 859Q257 851 265 847Q279 839 285 824T298 802ZM53 -179Q71 -166 85 -146T109 -103T125 -55T134 -5Q123 -77 92 -128T0 -206Q14 -204 27 -196T53 -179ZM193 -91Q170 -141 135 -187T47 -260Q101 -235 137 -190T193
-91ZM211 843Q219 845 226 850Q219 848 211 846T194 841Q204 841 211 843Z" />
<glyph unicode="k" glyph-name="k" horiz-adv-x="590" d="M473 -3Q466 23 452 51Q439 79 422 107Q438 79 448 50Q459 21 463 -6Q452 6 443 22T423 57T403 95T380 131Q386 137 389 137Q348 185 300 226T188 283V266Q217 260 250 245Q221 257 190 261Q188 232 186
205T180 151Q180 135 181 115T182 74Q182 18 167 18Q165 18 161 20Q162 36 162 51V148Q160 117 159 86T154 24Q143 17 140 9T134 -7T127 -18T110 -23Q99 -23 92 -14T77 10L80 20Q85 49 86 79T88 141Q88 198 90 250T97 356Q97 381 97 405T96 452L86 237Q81 182 81
126T71 24Q66 34 64 44T61 70Q61 89 61 104T60 137Q60 149 60 163T62 194L77 214Q76 228 76 241V269Q76 321 78 372T80 477V504Q80 516 79 527T77 550T74 578H71Q71 561 71 547T72 520T73 492V462Q73 340 64 217Q66 261 67 303T68 389Q68 434 67 476T66 559T64
644T63 734Q63 760 65 781T70 822T77 865T84 916L106 915Q112 915 116 911T121 891Q121 886 121 881T119 869H129Q137 899 149 915T173 932Q187 932 192 907T198 833Q198 814 198 799T196 769T195 738T194 700Q194 674 195 651T197 606T200 562T201 514V368Q232
381 266 410T330 473T383 541T415 598Q418 594 423 593L433 591Q438 590 442 588T446 579Q446 574 444 567T434 548L444 541Q460 563 476 576T503 590Q518 590 518 565Q518 532 503 500T463 439T409 385T348 342Q402 305 442 255T505 151Q511 141 520 127T538 98T553
69T560 44Q560 31 556 29T547 27Q533 67 513 100Q495 131 477 161Q494 130 511 100Q529 67 540 27Q535 27 531 26T524 20Q525 15 526 11Q528 2 531 -3Q527 -19 521 -24T508 -30Q500 -30 489 -24T473 -13V-3ZM314 235Q349 206 379 170L370 184Q348 219 312 243Q278
266 243 277Q280 263 314 235ZM435 227Q418 258 393 278Q370 297 345 316Q367 297 390 275Q414 252 435 227ZM359 157Q340 179 313 202T262 239Q287 227 312 208T359 157Z" />
<glyph unicode="l" glyph-name="l" horiz-adv-x="347" d="M315 85Q309 85 303 79Q282 71 260 66T213 60Q145 60 111 99T77 214Q77 250 80 286Q83 321 84 351Q81 320 77 289Q72 256 72 220Q72 202 75 174T93 120T136 74T216 54Q240 54 262 59T306 73Q292 56 269
46T213 36Q172 36 134 53T75 110L81 121Q63 153 61 178T57 229L74 404Q79 449 81 494L78 496Q70 449 65 406Q60 364 57 323V349Q63 395 68 439T81 530T101 626T135 733Q163 771 168 808Q171 808 174 807T186 806Q192 806 196 804T201 793Q201 784 195 766Q197 766
201 765T207 763Q221 787 232 804T255 821Q262 821 267 813T273 785Q271 749 262 717T241 655T220 594T204 529Q198 490 192 450T181 369T172 292T165 223Q165 194 174 163Q179 155 183 152T197 148Q209 148 223 151T249 154Q256 154 259 152T264 145Q250 137 234
133T204 129H190Q186 129 183 129Q194 127 211 127Q237 127 264 139Q264 130 270 124Q273 125 284 131T303 137Q327 137 327 117Q327 114 325 108T315 85ZM50 219Q50 226 50 237T52 259L54 282Q55 294 56 303Q55 288 55 266T54 232V192Q54 184 54 175T56 158Q52
174 51 189T50 219ZM148 223Q148 246 151 268T156 313Q151 290 149 268T144 223V209Q144 202 145 194V201Q145 206 146 212T148 223ZM56 304Q56 306 56 307Q57 308 57 309Q57 305 56 304Z" />
<glyph unicode="m" glyph-name="m" horiz-adv-x="1048" d="M487 48Q487 81 483 115T478 181V208Q473 247 466 299T448 399T421 479T381 512Q346 512 309 480T247 385Q235 350 231 311T223 229T218 141T208 46Q206 41 205 34T202 22H79V103Q78 113 77 127T75 155T72
184T70 208Q70 289 64 370T55 535L78 540Q81 540 84 535T90 514T95 472T100 400Q101 400 103 401Q107 403 109 403Q109 410 109 417T108 431Q108 517 119 563T139 610Q145 610 151 584T164 502Q181 529 203 554T252 597T312 627T382 638Q415 638 440 624T484 588T517
537T541 480T557 425T569 380Q569 378 570 376T572 371Q584 403 602 444T647 523T710 585T795 611Q842 611 875 586T930 522T966 436T987 343T996 259T998 201Q998 169 996 154T982 139Q980 179 979 220T973 302T960 384Q952 423 939 461Q964 382 968 303Q973 223
976 145Q969 152 965 152Q962 152 961 148V118Q961 105 961 91T964 67Q962 26 961 9T953 -14Q945 -14 939 -5T928 18T917 49T907 82V109Q907 153 907 201T903 294T892 381T872 453T840 503T792 521Q769 521 750 509Q739 502 728 491Q739 501 751 508Q770 520 792
520H796Q821 520 838 501T867 449T885 376T894 291T899 204T901 124Q895 152 891 190T882 271T871 354T854 427T829 480T792 500Q783 500 776 499T758 488L748 493Q714 463 691 413T652 306T625 188T604 77V39Q620 118 633 194T673 343Q653 281 642 215T617 80Q617
73 614 61T604 25L494 36L487 48ZM498 98Q495 125 493 167T486 256T475 351T456 437T425 500T378 524Q369 524 359 520T340 511Q343 512 345 512H346Q346 511 343 508Q370 517 385 517Q404 510 419 486T444 429T462 356T474 282T480 218T482 178Q485 148 487 119T490
61L498 98ZM582 367Q582 366 584 358Q586 351 587 349Q590 359 600 381T622 429T645 477Q649 486 652 493Q649 487 644 480Q633 460 620 439T596 397T582 367ZM661 379Q641 328 626 272T599 155L601 139Q614 211 631 284Q647 348 672 405Q671 402 670 400Q665 390
661 379ZM498 243Q500 227 500 212T502 184L505 136L506 141Q505 155 505 168V193L498 243ZM826 586Q808 591 792 591H781Q774 591 774 590H775Q791 586 805 586H826ZM678 357Q683 371 687 384Q692 397 695 402Q695 400 693 394Q691 387 685 373L678 357ZM895 544Q890
550 882 556Q876 560 871 563Q883 555 895 544ZM657 502Q655 500 654 496Q656 499 657 502Z" />
<glyph unicode="n" glyph-name="n" horiz-adv-x="618" d="M60 64Q60 69 63 76T66 91Q69 115 70 125T71 144Q71 186 69 234T63 328Q63 342 63 361T60 391Q63 426 65 460T67 529V554Q67 567 66 580Q69 577 72 577Q76 577 80 580T89 583Q96 583 100 568T105 502H114Q119
558 129 591T151 624Q156 624 167 603T178 535L189 553Q200 566 213 580T244 605T282 623T330 631Q382 631 420 608T485 547T527 462T553 366T565 272T568 195Q568 166 565 161T552 154Q550 231 542 311T504 466Q531 387 538 311T546 157Q540 160 535 160Q531 160
528 157Q528 149 529 140Q530 132 530 124T531 109Q525 86 519 76T508 66Q502 66 498 71T491 85T484 102T474 121Q476 138 477 148T478 166Q478 193 477 231T472 310T458 393T432 467T390 520T330 541Q306 541 288 525T256 484T232 430T216 373Q225 401 234 430T257
483T289 522T331 538Q362 538 384 521T422 477T447 416T462 346T468 277T470 219Q470 200 470 181T468 142Q459 180 455 221T445 303T433 381T411 451L418 461Q408 484 396 496T371 515T349 522T336 523Q311 523 292 505T258 457T232 386T213 302T199 214T189 130H198Q203
164 208 205T220 288T236 371T257 443T287 495Q303 514 326 517Q304 512 289 489Q273 465 261 430T240 354T222 274L202 128Q198 114 196 103L192 82Q190 72 188 61T183 34L180 22H174L73 56Q68 57 66 59T60 64ZM234 577Q214 560 203 541T181 501V500Q195 529 220
559Q244 587 284 601Q271 597 259 593Q245 588 234 577ZM354 610Q349 611 340 611Q372 603 400 594T453 556Q436 579 409 592T354 610ZM381 496Q373 502 363 505T337 515L336 517Q353 516 366 510T391 487L381 496ZM455 554Q469 537 481 515T502 476Q492 499 483
518T455 554Z" />
<glyph unicode="o" glyph-name="o" horiz-adv-x="641" d="M262 602Q263 597 273 597H275Q281 597 283 596Q335 580 386 550T479 477T546 380T572 264Q572 210 551 160T493 73Q531 106 553 155T576 262Q576 326 549 381T480 481T387 556T286 605Q324 605 363 588T439
544T505 481T557 408L550 398Q570 368 580 333T591 261Q591 190 561 137T484 48T382 -6T277 -24Q249 -24 221 -18T163 2V-4Q191 -20 220 -26T279 -32Q351 -32 420 -1T538 88Q492 29 424 -4T281 -37Q205 -37 158 -8T85 65T49 156T40 242Q40 293 53 342T95 432T167
502T273 544L244 551Q223 556 214 563T205 575Q205 583 222 592T262 602ZM217 476Q244 486 269 486Q294 486 307 479T321 463Q321 458 310 452T281 436T243 409T205 369T176 309T164 227Q164 158 195 123T281 88Q316 88 352 100T418 134T466 188T485 260Q485 290
475 320T446 377T402 429T346 470Q317 486 299 494T272 511Q264 507 250 502T211 485L217 476ZM284 523Q330 508 372 478Q408 451 438 419Q409 453 375 480Q336 512 288 530L284 523ZM478 182Q463 150 436 125Q454 137 466 154T487 188T499 219Q502 232 504 240Q493
214 478 182ZM545 96Q544 94 542 92Q541 91 540 91Q539 91 545 101T559 126T576 157Q583 169 586 178Q572 135 545 96ZM601 258Q601 242 599 227T592 198Q599 223 599 254Q599 277 595 299Q592 318 587 336Q592 318 596 300Q601 280 601 258ZM284 539L275 543Q274
541 272 539T270 535Q270 533 272 530T277 524L284 539ZM444 412Q441 416 438 419Q441 415 444 412ZM586 178Q587 180 587 182Q587 180 586 178ZM588 184Q587 183 587 182Q587 183 588 184Z" />
<glyph unicode="p" glyph-name="p" horiz-adv-x="657" d="M142 -290Q144 -234 145 -180T146 -64Q146 -38 145 -13T142 37V-73Q142 -128 141 -182T133 -290Q128 -281 124 -272T118 -251Q120 -224 120 -202T121 -152L133 -146Q130 -125 129 -104T128 -61Q128 -38
128 -17T129 28Q129 56 128 83T121 139H118Q120 97 121 56T123 -26Q123 -44 122 -62L121 -88Q119 8 114 100Q110 198 100 301L104 384Q93 385 81 385H58L55 408Q55 413 62 417T90 421H100V433Q67 437 49 447T30 468Q30 478 48 485T94 497T157 504T223 506Q258 506
298 504T380 494T459 470T529 424T580 350T607 241Q607 187 584 153T527 97T459 67T400 55Q377 50 347 44T296 37Q273 37 269 42T265 55Q310 57 355 62T445 82Q400 71 355 66T265 58Q265 64 264 70T258 77Q248 77 243 45T235 -31T232 -123T231 -201Q231 -215 232
-230T234 -257Q234 -267 231 -274T214 -281V-155Q212 -187 212 -218T211 -281H193V-289Q193 -298 196 -302Q185 -321 171 -321Q160 -321 155 -315T139 -299L142 -290ZM239 127H253Q288 127 333 131T419 146T486 177T514 229V237Q514 247 513 259T504 282Q505 277
509 262T513 237Q513 206 492 187T438 156T367 140T293 135H273Q263 135 253 136Q267 147 289 151T337 159T386 165T427 175L433 163Q468 180 482 196T497 242Q497 288 472 323T403 370L400 364Q437 350 464 318T491 241Q491 217 480 203Q470 191 448 181Q466 189
475 201Q486 215 490 232Q490 274 470 303T414 349T328 374T216 382Q224 339 225 289T232 190L239 127ZM138 280Q140 282 142 297T145 329T148 362T152 381L139 382L138 280ZM443 179L448 181L443 179Z" />
<glyph unicode="q" glyph-name="q" horiz-adv-x="612" d="M464 -353Q469 -327 470 -307T472 -266Q472 -240 471 -213T470 -155V-136Q470 -105 466 -73T458 -9Q461 -62 465 -114T469 -219Q469 -251 467 -282T458 -344Q453 -335 450 -326T446 -305Q448 -278 448
-254T449 -202L458 -200Q450 -152 449 -106T444 -11H437Q437 -16 439 -42T443 -98T447 -155T449 -187Q444 -142 441 -99T432 -11Q392 -7 360 -3T287 11L275 22Q236 28 196 43T124 85T72 152T52 249Q52 295 67 339T116 418L113 421Q75 387 59 341T43 249Q43 205
58 169T99 103T160 53Q193 34 229 22Q196 32 163 48Q129 66 102 94T57 163T40 261Q40 325 69 372T145 451T253 498T377 514H422Q454 505 483 499T545 484L542 468Q542 463 539 459T524 455Q518 455 509 456T488 460Q488 454 485 451Q517 438 533 424T550 399Q550
389 537 386Q542 376 542 361Q540 333 537 300T534 228Q534 174 544 116T554 -2Q554 -50 558 -98T562 -195Q562 -211 561 -226T559 -256Q559 -268 560 -282T561 -308Q561 -343 548 -343Q546 -343 542 -341Q543 -330 543 -318V-296Q543 -285 542 -274Q542 -264 542
-255Q541 -276 539 -297Q537 -319 536 -341L527 -345Q521 -350 516 -358T497 -366Q487 -366 478 -364T464 -353ZM413 310Q421 330 426 353T435 396Q402 399 368 399Q261 392 213 354T161 238Q161 206 183 182T242 142T327 116T428 104Q420 150 417 203T413 310ZM440
10Q412 12 375 16T298 28T219 51T147 88T92 144Q90 147 88 149L89 148Q110 115 140 92T209 53T288 27T369 11T443 1L440 10ZM457 303Q459 308 464 320T476 346T488 371T497 385H483Q477 385 469 386Q471 382 471 377Q471 375 468 365T460 342T453 318T448 303H457ZM169
162Q184 146 205 134T252 112Q274 105 297 101Q275 105 254 112Q229 121 208 133T171 162Q157 177 150 196Q156 177 169 162ZM323 96Q347 91 373 88T425 81L424 85Q399 87 373 89T323 96ZM65 217Q70 182 85 154Q70 182 65 217ZM232 21Q231 21 229 22Q231 22 232
21Z" />
<glyph unicode="r" glyph-name="r" horiz-adv-x="449" d="M223 -11Q213 -13 201 -13H172Q146 -13 136 -19T123 -25L119 -7V11L114 105Q112 132 103 163T89 226Q86 247 84 266L80 305Q78 325 76 346T68 391Q68 397 68 403T69 415Q69 446 64 476T50 535Q57 538 63
540T74 543Q79 543 85 532T98 484Q100 484 104 485T110 487Q109 504 105 523T97 561T90 593T86 617Q86 619 86 622T91 625Q96 625 104 614T121 586T138 550T154 513Q181 564 215 590T306 617Q347 617 373 608T413 587T433 565L439 555Q439 549 433 547Q407 572
374 585T306 598Q272 598 255 589Q239 581 221 569Q240 581 256 588Q273 595 305 595Q340 595 372 582T427 547Q422 545 419 543T415 535Q420 535 426 529T437 513T445 495T449 479Q449 462 436 462Q426 462 412 469Q409 470 400 480T376 500T344 520T304 529Q286
529 273 522T248 502T228 473L215 449Q230 476 248 498Q268 524 298 524Q324 524 346 513T382 484Q365 491 342 498T298 505Q287 505 279 500T266 488T256 471T246 454L233 452Q216 423 206 385T195 304Q195 279 197 259T205 218L217 187L215 216Q213 250 211 276T209
335Q211 364 217 390Q222 412 232 431Q220 407 216 376Q211 342 211 304Q211 274 214 247T221 193T231 138T239 75L242 56L248 -1L223 -11ZM235 436L232 431L235 436Z" />
<glyph unicode="s" glyph-name="s" horiz-adv-x="643" d="M133 161Q149 156 171 143T222 116T283 91T355 80H366Q372 80 380 82L391 74Q430 86 455 119T480 210Q480 251 461 266T389 282Q357 282 323 278T250 273Q233 273 215 274T178 281V275Q218 265 257 265Q295
265 329 269T396 274Q423 274 438 269T462 254T472 233T475 205Q475 158 450 125Q426 94 393 86Q430 99 451 131Q473 165 473 207Q473 237 458 253T404 269Q373 269 334 265T251 261Q224 261 189 268T121 294T67 346T45 434Q45 477 62 513T109 577T175 621T253
638Q291 638 325 628T391 601T450 564T502 524L482 504Q475 504 461 512T418 542L412 533Q448 504 464 479T481 440Q479 432 471 432Q463 432 439 445T385 474T320 503T258 516Q242 516 226 510T197 494T176 468T167 435Q167 406 194 396T265 386Q274 386 284 386T304
389Q327 389 334 390T349 392Q392 392 435 386T512 360T567 303T588 204Q588 161 574 119T530 43T458 -11T357 -32Q322 -32 275 -19T185 13T113 52T83 86Q83 90 88 92Q149 47 212 18Q274 -9 339 -12Q307 -10 275 -1Q242 9 210 23T148 56T91 94L106 107Q103 108
95 114T80 129T66 148T60 167Q60 177 64 180T73 183Q78 183 94 176T133 161ZM354 59Q319 59 277 73T196 111Q227 90 265 74T353 57Q420 57 459 98T499 208V218Q494 250 478 270T427 293Q448 289 461 280T482 259T493 231T496 200Q492 134 454 97T354 59ZM481 20Q506
36 521 59T547 107Q526 65 490 33T403 -7Q422 -4 442 1T481 20ZM576 208Q576 219 572 229Q569 237 567 246L568 233Q569 225 569 211Q569 184 563 159T548 110Q557 132 565 156T576 208ZM567 249Q567 248 567 246Q567 248 567 249ZM392 85Q391 85 390 85Q391 85
392 85Z" />
<glyph unicode="t" glyph-name="t" horiz-adv-x="477" d="M422 500Q413 500 398 497T367 490T339 482T323 476Q349 480 371 485T419 491Q414 482 406 477T389 470T368 466T345 461L338 470Q319 463 309 462T288 460Q276 460 264 460T236 461Q236 456 235 453Q258
453 274 453T313 457Q291 453 275 451T235 449Q231 426 228 404T225 361Q225 349 226 333T228 301T231 270T232 248V188Q237 168 261 158T330 148H362Q379 148 385 145T392 135Q392 130 384 130T368 129Q339 129 307 133Q277 137 248 142Q277 135 309 129Q342 124
373 124H382Q386 124 391 125Q391 120 391 116T394 107L402 109Q405 110 409 110T415 113Q447 110 447 91Q447 80 441 73T426 62T406 57T385 55Q350 55 317 59T251 69Q279 59 322 53T409 47Q398 40 383 36T352 32L280 41Q266 43 259 45T244 49T229 55T205 62V73Q179
80 163 97T138 134T126 174T123 211Q123 228 123 242T124 272Q124 283 124 300T122 336T121 375T120 413Q120 424 120 434T122 452H112Q111 445 111 436V418Q111 389 112 361T113 308T115 267T116 241V201V193Q113 220 110 270Q107 328 107 398V416Q107 427 107
437T110 452L76 454Q65 461 54 465T34 469V489Q34 495 35 499T45 504Q47 504 55 502V514Q44 520 37 530T30 552Q30 578 67 578Q81 578 96 576T127 573Q131 595 134 612T140 646T147 679T157 714Q166 734 171 757T178 804L199 803Q204 803 207 800T211 786Q211 777
208 762L220 759Q228 786 239 803T262 820Q279 820 283 777V759Q283 733 280 711T271 666T261 621T252 571Q274 568 295 568Q305 568 315 568T335 569Q345 569 356 577T376 585Q384 585 388 580T392 569Q374 564 357 559T323 548Q339 550 357 555T395 566Q395 561
395 557T398 548Q400 548 403 549Q409 551 410 551Q420 546 423 539T426 522Q426 515 424 510T422 500ZM157 131Q143 158 142 184T139 233L130 385L127 367Q127 300 131 246T145 161Q145 152 145 149T144 144Q144 142 146 139T157 131ZM214 185Q212 193 212 202V251Q211
241 210 232T209 212Q209 186 212 172Q215 160 224 152Q219 158 217 165Q216 173 214 185ZM117 186L116 193L117 186ZM226 151Q225 152 224 152Q225 152 226 151Z" />
<glyph unicode="u" glyph-name="u" horiz-adv-x="655" d="M587 609L584 591Q579 542 578 486Q577 431 570 375Q578 430 583 483Q588 538 593 591Q598 575 601 557T605 519Q600 469 596 423T585 327L572 324Q567 278 551 224T505 124T426 48T311 17Q289 17 265
20T217 31T173 51T137 81L138 79V78L137 77L134 78Q140 69 147 62Q129 78 114 99Q89 133 74 180Q65 208 60 237T53 298T51 369T50 453Q59 489 64 525T71 597Q74 597 78 598T86 599Q93 599 98 591T104 557V548Q104 544 103 539H115Q123 581 134 603T156 625Q164
625 170 603T177 532Q177 497 175 461T173 387Q173 328 178 280T200 198T245 146T322 127Q361 127 387 151T431 215T461 307T485 417Q487 433 488 449T489 482V513Q489 542 492 562T509 585Q509 534 506 484Q504 436 498 388Q505 435 509 482Q513 531 515 582Q521
578 525 578Q529 578 533 582V618Q538 636 543 643T554 651Q560 651 566 645T578 630L587 609ZM174 42Q198 29 223 22T271 11T308 8Q378 8 427 39T507 116T556 216Q572 266 580 308Q573 266 558 215Q541 161 510 114T430 35T314 3Q276 3 239 13T170 44Q172 43 174
42ZM557 288Q560 305 562 321Q564 335 566 349Q560 305 546 256Q532 205 507 160T444 79Q408 46 360 34Q402 43 435 69Q469 96 493 132T532 209T557 288ZM458 218Q447 196 434 176T403 140Q421 155 434 175T458 218ZM170 44Q158 52 147 62Q158 52 170 44ZM581 315L580
308L581 315ZM567 354Q566 351 566 349Q566 351 567 354Z" />
<glyph unicode="v" glyph-name="v" horiz-adv-x="634" d="M168 -1Q145 89 120 173T68 344Q55 384 46 422T20 500Q27 502 31 507T43 513Q48 513 52 507T60 494T67 478T71 467L83 470Q79 486 77 501T74 533Q74 539 75 551T87 564Q102 564 120 537T155 466T190 372T221
272T245 186T260 132Q286 165 306 201T345 273T386 345T437 413Q444 421 458 439T489 475T522 508T548 522Q553 522 557 515Q519 477 482 439T416 353Q445 399 482 436T560 509L569 497Q575 506 591 517T618 528Q626 528 630 523T634 510Q634 503 632 492T626 476Q621
469 614 464Q581 434 552 409T496 346L503 353Q530 385 557 410T620 458Q601 426 577 404T527 353Q515 339 507 323T485 293L476 296Q457 255 437 213T392 130T339 53T272 -10Q269 -16 260 -20T245 -28L182 0Q175 23 167 49T150 98L145 97L172 0Q173 -1 175 -2T185
-6T208 -16T251 -34Q291 -10 319 18Q346 45 371 82Q360 63 348 47Q336 30 322 15T291 -13T252 -39L168 -1ZM308 38Q356 92 390 152T452 275V277Q435 247 419 216T385 154T349 94T308 38ZM354 241Q384 298 416 353Q381 299 352 243Q323 188 289 136Q325 186 354
241ZM492 340Q482 326 474 313T457 286Q466 299 478 311T492 340ZM376 89Q392 115 406 142Q407 143 408 144Q407 143 407 142Q393 115 376 89ZM421 169L413 154L421 169ZM429 185Q425 177 421 169Q425 177 429 185ZM412 153Q411 150 409 147Q411 150 412 153ZM374
86Q372 84 371 82Q372 84 374 86Z" />
<glyph unicode="w" glyph-name="w" horiz-adv-x="744" d="M731 519Q709 477 679 407T613 258Q642 316 669 373T728 492Q718 449 705 412T675 339T640 268T604 192L587 182Q570 141 552 100T508 21T448 -46T368 -94Q353 -85 337 -74T305 -56Q305 -55 305 -54T304
-51Q304 -43 305 -26T309 10T312 42T314 60L308 54Q308 47 307 34T303 5T299 -24T297 -48V-53L374 -100Q403 -97 435 -66T498 7T552 92Q573 129 585 153Q571 123 551 84Q529 41 502 1T442 -68T375 -104L296 -58Q294 -54 294 -49Q294 -33 299 -5T304 42V50Q299 45
289 31T267 3T242 -23T221 -34Q204 -23 189 -11T158 14Q151 45 138 76T109 137T81 199T63 263Q55 311 39 359T10 455L14 453Q19 455 23 459T32 463Q38 463 43 453T51 429T57 403T61 386L73 389Q71 411 69 432T67 476V486Q67 493 68 501T72 515T80 521Q92 521 107
488T138 408T169 308T198 217Q201 207 206 194T217 167T226 144T232 129Q235 144 242 170T256 226T271 282T284 323Q292 324 299 324T312 325Q332 325 348 321T389 306Q396 291 400 268T406 219T409 166T410 116V76Q451 136 481 198T542 326Q545 333 552 350T568
388T588 432T609 475T627 506T641 519L647 516Q631 479 616 445T585 378T554 311T524 239L650 510L660 501L665 504Q667 511 672 524T685 550T701 573T719 583Q723 583 726 579T730 569T733 558T734 549L731 519ZM250 112Q255 128 261 148T275 192T289 235T300
269T304 285V286L293 278H289Q284 257 277 234T263 186T251 139T244 95Q245 98 250 112ZM366 -81Q394 -77 423 -50T479 11T525 81T557 140L574 177Q553 135 531 96Q507 54 482 20T431 -38T380 -70L362 -78L321 -50Q321 -44 322 -32T325 -5T328 22T330 44Q329 36
327 23T323 -4T319 -30T317 -48Q317 -53 322 -58T335 -67T351 -76T365 -83L366 -81ZM522 234Q497 183 471 133T407 41V38Q445 80 472 131T522 234ZM354 -5L361 49L344 -3L354 -5ZM213 60Q210 60 206 55T196 43T187 30T182 21L183 20Q185 21 190 26T200 38T209 51T215
59L213 60ZM412 -16Q397 -7 378 -7L364 -8Q375 -10 386 -13T408 -16H412ZM327 80V71Q327 73 327 74Q328 77 328 80H327ZM328 62Q328 64 327 65Q327 64 328 62ZM589 161Q587 157 585 153Q587 157 589 161Z" />
<glyph unicode="x" glyph-name="x" horiz-adv-x="568" d="M447 48Q448 53 448 56V65Q448 87 435 117T401 176T359 230T321 271L320 269Q341 244 362 219T401 168T430 116T442 65V56Q442 53 441 48Q432 54 429 62T424 78T422 91T417 96Q411 110 406 118T393 141L399
153Q374 177 354 203T310 258L306 254Q329 226 345 205Q361 185 366 177Q363 182 349 196Q334 212 303 250Q265 208 235 167T177 84Q170 79 166 67T158 41T149 19T133 9Q129 9 123 15Q140 41 148 64T159 93Q145 79 139 59T120 18Q118 20 114 23T105 27L96 9Q92
7 86 7Q79 7 74 12T64 25T58 38T54 45L57 48Q62 53 69 67T86 101T111 145T144 195Q164 222 184 251T225 306Q186 262 151 212T87 111Q78 91 69 76T51 54Q49 57 49 66Q49 73 53 86T65 114T82 144T102 174L111 171Q134 217 165 254T225 329L218 334Q195 305 173 275T128
213Q149 245 170 275T215 336Q188 356 163 373T111 412T58 465T0 546L24 562Q29 562 34 557T48 537L57 546Q49 565 49 579Q49 609 71 609Q81 609 97 594T135 557T181 512T234 471L290 423L351 525Q359 529 369 537T390 555T412 575T432 594Q434 586 442 582T450
570Q450 561 432 546Q438 540 441 540Q460 550 477 550Q490 550 498 545T506 528Q506 515 491 495T455 451T412 401T377 348Q395 322 422 291T475 226T519 154T538 78Q538 62 533 60T522 57Q520 75 517 93T507 129L498 147Q496 148 492 152L504 129Q511 111 513
95T516 60Q511 60 507 60T501 57V39Q493 20 480 20Q471 20 462 27T447 39V48ZM180 126Q194 140 206 160Q217 179 231 197Q217 181 203 165Q188 149 180 126ZM378 321Q396 289 421 258T471 192Q448 226 423 259T378 321ZM179 373L176 370Q177 369 183 365T196 355T210
346T218 340L221 344L179 373ZM232 337L224 342L221 338L228 333L232 337ZM367 176L366 177L367 176Z" />
<glyph unicode="y" glyph-name="y" horiz-adv-x="597" d="M42 -269Q50 -277 69 -281T107 -286Q140 -286 170 -265T227 -206T280 -121T328 -20H327Q307 -64 284 -110T234 -195T176 -258T108 -283Q79 -283 51 -266Q66 -261 79 -261Q83 -261 93 -263Q109 -263 120
-262T141 -258T160 -247T180 -227L192 -230Q221 -192 246 -148T297 -59L315 -19L306 -17L291 -53Q268 -98 243 -141T186 -221Q221 -178 250 -125T303 -15L297 -5Q292 18 282 40Q275 57 266 75Q284 32 291 -8Q281 -5 275 4T263 27T253 54T241 82L246 91Q230 116
212 153T173 229T131 305T90 367L87 364L212 139Q174 203 131 269T54 415Q54 422 52 433T48 457T42 482T36 505L62 513Q67 513 71 509T78 490Q83 490 87 498T95 516T105 534T120 542Q133 542 143 525T163 482T184 430T210 382Q226 355 242 329T273 274Q288 234
312 194T350 109Q374 189 388 251T411 376Q422 408 430 448T438 526L460 525Q465 525 469 521T473 499Q473 494 473 489T471 475H480Q489 508 501 528T524 548Q532 548 539 531T547 474Q547 407 531 329T498 175Q470 73 432 -21T336 -212Q318 -239 296 -268T244
-322T177 -361T91 -377Q56 -377 44 -368T31 -354Q31 -351 33 -347Q63 -357 97 -357Q121 -357 152 -349T209 -323Q186 -335 158 -344T106 -353Q70 -353 36 -344Q36 -337 31 -331T18 -320T6 -308T0 -294Q0 -286 5 -282T16 -276T30 -273T42 -269ZM378 -92Q349 -144
318 -196T240 -296Q288 -251 319 -199T378 -92ZM303 159L336 77L342 83L303 159ZM356 91Q360 103 363 115L369 139L363 142L352 103Q354 95 356 91ZM243 127Q232 153 218 178T186 229Q201 200 217 171Q233 144 247 116L243 127ZM267 241Q268 226 271 216T279 199T288
185T297 169L295 172L267 241ZM344 79L337 71Q339 68 341 66T344 59L349 67L344 79Z" />
<glyph unicode="z" glyph-name="z" horiz-adv-x="685" d="M615 354Q595 336 567 319T509 288T450 263T398 246Q375 239 356 233T320 218T286 200T251 176Q238 166 230 160T216 150T207 144T200 140L236 137Q278 133 317 129T396 119Q413 117 416 117T422 116Q504
111 537 109T570 94Q570 90 569 89Q528 91 490 96T399 104Q379 107 353 109T298 113T241 116T187 117Q164 117 146 117T117 114Q144 114 181 113T257 111T333 107T398 100L433 95Q468 90 498 89T565 84Q560 79 560 74Q560 65 572 66T608 64Q628 56 636 50T645 37Q645
31 637 26T617 17L592 10Q551 17 514 19T431 27L405 30Q373 34 342 37T278 43L172 51Q161 52 148 52T121 53H103Q94 53 84 52L66 51V128Q66 159 81 176T114 203Q123 208 132 211Q130 211 128 210Q113 205 99 196T74 170T63 128L62 49H159L220 46Q267 43 311 38T400
27L432 22Q470 18 503 14T571 5Q557 2 541 0T504 -3Q485 -3 470 -1T435 3L403 7Q368 12 336 15T267 23L261 34H180Q175 34 169 34T155 33H130Q117 33 104 33T76 36L48 40V127Q48 160 62 180T96 213T134 232T163 245L186 263Q226 293 270 316T362 352L377 356Q399
367 424 375T471 395L468 400Q443 389 418 381T374 364L359 360Q309 346 264 322T181 269L161 252H157Q154 252 149 250L159 255Q213 301 264 326T367 367Q405 381 429 388T474 407Q435 416 405 419T349 423Q336 423 324 423T300 421Q293 422 286 422H273Q238 422
206 415T144 396Q144 403 139 407T133 419Q133 425 146 434T197 451L195 461Q161 456 136 452T94 448Q83 448 78 449T70 456Q70 458 71 460T72 464Q92 484 121 499T185 525T261 541T343 547Q374 547 412 542T498 529Q508 526 516 524T533 518T553 511T580 501Q579
502 593 496T623 474L615 354ZM40 127Q40 150 45 165T61 191Q53 179 48 164T42 131V37L73 31Q87 28 101 27T128 26Q142 26 153 26T175 27L252 26L176 25H165Q156 25 146 25T123 24Q112 24 99 25T72 29L40 35V127ZM141 245L120 231Q108 223 92 215T61 191Q80 219
107 232T149 250L141 245ZM188 161Q174 161 164 151T147 136L149 135Q154 138 168 146T198 163T229 180T252 194Q247 191 238 187T218 177T200 168T188 161ZM150 218Q167 224 172 233L178 237Q196 251 215 266T256 295Q228 281 205 261T153 222Q148 219 142 216Q146
217 150 218Z" />
<glyph unicode="{" glyph-name="braceleft" horiz-adv-x="408" d="M50 404Q55 403 59 403H68Q86 403 102 408T133 424L135 427Q113 474 94 520T74 620Q74 666 89 703T132 767T198 808T283 822L281 817Q282 813 283 808T285 800Q285 795 278 791T260 785T240 780T226
777L229 767Q233 767 237 767T245 768Q265 768 284 762T311 738Q310 727 292 721T253 705T215 674T197 614Q197 582 207 560T228 517T250 476T260 426Q260 411 254 399T237 377T215 360T191 348Q192 344 195 341T201 331T206 316T209 289Q209 265 207 242T204 194Q204
168 211 140T233 87T270 48T324 32H330Q336 32 340 30T344 19L343 15Q295 15 254 43Q216 69 196 109Q214 67 252 40Q293 12 341 9L338 -4Q342 -5 345 -6T353 -7Q359 -7 366 -6T380 -5Q389 -5 396 -8T408 -22Q408 -36 396 -45T372 -60Q322 -60 275 -44T192 3T135
77T113 174Q113 199 116 223T120 272Q120 274 118 279Q117 283 116 287Q116 258 113 229Q111 200 111 173Q111 125 131 82T184 6T260 -47T352 -68Q341 -73 330 -74T306 -75Q272 -75 241 -61T184 -23T139 29T108 88L118 92Q110 110 104 130T97 170Q97 200 99 230T102
291L94 265Q94 281 90 293T68 305H57L50 404ZM88 194Q88 199 88 204T90 215V200Q90 174 92 149T102 100Q93 122 91 146T88 194ZM140 427Q136 419 126 416L137 412L141 415L145 425L140 427ZM190 288Q190 279 190 271T188 254Q191 275 191 297Q191 302 189 308Q190
304 190 299V288Z" />
<glyph unicode="|" glyph-name="bar" horiz-adv-x="294" d="M207 780Q217 780 224 768T236 740T242 708T244 684Q244 635 237 576T219 457T197 338T179 231Q171 176 167 122T162 11Q162 6 163 -7T164 -37Q164 -55 161 -70T148 -85L144 -84V-8Q143 -26 142 -44T138
-83L129 -81L122 -83L124 -104Q122 -112 117 -122T101 -132Q90 -132 82 -123T68 -105Q68 -46 71 12Q75 68 77 126Q73 72 68 19Q63 -36 61 -91Q57 -82 54 -73T50 -53Q50 -22 51 8T55 69H65Q64 80 64 90T63 110Q63 183 75 254T96 398H90Q74 317 66 236Q59 157 55
77Q55 115 56 152Q57 192 59 232Q62 284 73 346T97 473T119 599T129 715Q129 728 126 740L138 744Q144 746 150 746Q161 746 163 734T165 713L176 714Q177 720 178 731T183 753T192 772T207 780ZM149 152Q147 118 146 83Q148 118 151 152Q154 189 159 226Q152 189
149 152ZM80 184Q82 204 82 224Q83 242 85 259Q82 246 81 233Q79 218 79 203V193Q79 189 80 184Z" />
<glyph unicode="}" glyph-name="braceright" horiz-adv-x="389" d="M294 318Q294 295 301 273T316 230T332 185T339 138Q339 97 324 66T282 14T222 -18T149 -29Q141 -29 132 -27T118 -16L119 -12Q144 -10 168 -7Q190 -5 212 1Q191 -4 169 -5Q146 -7 122 -7L124
3L122 10Q119 9 114 9H103Q87 9 72 13T56 31Q56 44 70 52T95 64Q118 59 142 59Q161 59 180 62T214 75T238 98T248 135Q248 159 241 181T226 226T210 271T203 319V327Q203 331 204 336L201 337L200 322Q200 297 207 274T223 227T239 181T247 134Q247 111 238 99T215
79T183 71T147 69Q138 69 129 69T111 71Q125 76 144 79T182 88T213 104T226 136H237L228 178Q223 181 216 201T202 245T190 290T185 319V331Q185 337 187 342L181 345Q180 340 180 334T179 323Q179 303 183 284T194 247T208 210Q214 193 219 176Q213 194 207 211L193
247Q186 265 182 283T177 323V334Q177 340 179 346Q141 366 123 400T104 476Q104 487 110 508T124 551T142 592T160 620L161 627Q161 651 156 665T141 688T117 698T86 701H78L32 700V704Q32 711 31 715T30 723Q30 728 36 730T51 734T69 736T83 737H88L87 748Q80
749 66 750T37 756T11 766T0 782Q0 792 15 798T49 807T87 811T114 812Q195 812 240 773T285 655Q285 619 276 600T254 566T233 535T223 488Q223 476 227 464T242 441T273 423T326 414L332 318H294ZM114 428Q118 416 128 403T152 378T180 357T207 342L209 350Q198
356 184 365T157 385T133 408T119 432L118 426L114 428ZM324 335L282 338L324 327V335Z" />
<glyph unicode="~" glyph-name="asciitilde" horiz-adv-x="544" d="M280 221Q271 225 261 231T240 245T219 257T199 265L200 262L198 260Q208 257 218 250T241 234T265 219T291 209L305 204Q320 201 335 198T370 192Q384 192 403 194T443 207Q426 196 409 193T379
190Q343 190 310 196T249 221L207 249Q196 254 185 260T163 267Q151 267 146 254T141 231Q135 231 129 230T116 229Q105 229 105 243Q105 248 106 252L95 253Q87 235 77 223T56 211Q42 211 36 225T30 264Q30 299 43 334Q54 348 71 362T126 376Q166 376 194 371T245
358T286 340T323 321Q364 302 385 302Q394 310 397 323T401 348T406 369T418 378Q420 378 426 376Q423 366 422 356T418 337Q423 355 431 374Q436 370 444 370L446 373Q448 377 451 381T459 388T470 392Q481 392 489 384T502 367Q497 359 494 350T488 331Q478 295
467 273T444 238T417 221T385 216Q362 216 336 220T286 232Q305 225 328 219T377 213Q416 213 438 229T472 269T492 317T507 359Q514 347 514 337Q514 323 504 291T471 230L462 237Q453 223 442 216T418 204T394 199T373 198Q353 198 338 202T308 211L294 216Q290
217 287 218T280 221ZM383 283Q396 283 402 294Q393 285 377 285Q355 288 330 299Q342 292 357 288T383 283ZM448 210Q450 212 454 214L448 210Z" />
<glyph unicode="&#xa0;" glyph-name="nbspace" horiz-adv-x="350" />
<glyph unicode="&#xa1;" glyph-name="exclamdown" horiz-adv-x="253" d="M178 269Q187 269 192 264T200 250T202 234T203 218Q203 179 201 131T193 32T181 -67T164 -152Q178 -162 181 -180Q177 -190 168 -200T150 -217L83 -232L154 -221Q171 -206 183 -191Q183
-212 169 -229T136 -261T94 -288T57 -311V-254L69 -244Q77 -181 80 -118Q81 -102 82 -85Q81 -98 80 -111Q78 -141 73 -170T57 -226V-120H68Q67 -113 67 -107T66 -94Q66 -58 73 -22T81 51Q81 59 81 65T79 80H74Q72 30 67 -18Q62 -66 57 -114Q61 -33 67 46Q74 127
79 209Q92 233 94 261Q98 259 103 259T114 260T124 257T128 248L127 237L138 236Q143 248 153 258T178 269ZM194 528Q199 518 201 506T203 483V473Q200 478 186 479T165 482L152 478Q166 478 179 477T203 467Q202 464 202 461T199 454Q195 456 191 456T183 457L181
465H157L147 458L149 453Q153 456 158 457T169 458Q171 458 172 458T175 457Q166 455 155 451T140 441Q138 443 136 444T130 447H131Q123 452 117 458T104 471L106 472L98 480Q95 481 88 484T73 491T59 500T53 508L50 519Q50 525 58 533T79 550T102 564T120 570Q133
570 145 567T170 564Q172 564 175 565T180 567Q186 559 188 549Q178 547 173 547Q187 544 191 527L194 528ZM164 -24Q158 -44 156 -64T151 -106L164 -24ZM96 -169L100 -171L105 -165L101 -164L96 -169ZM147 -188V-181L144 -180V-187L147 -188ZM90 4Q87 -22 85 -49Q87
-23 90 4ZM136 552Q140 550 144 549L136 552Z" />
<glyph unicode="&#xa2;" glyph-name="cent" horiz-adv-x="577" d="M225 134Q191 145 162 170T110 227T76 297T63 369Q63 417 83 451T136 518L133 523Q102 497 78 463T54 385Q54 343 66 303Q74 274 89 247Q75 270 65 296Q50 332 50 370Q50 417 66 452T106 513T160
557T217 586T265 604T293 613Q301 642 307 676T318 740Q328 738 339 737T350 722Q350 716 349 710T346 698L357 696Q360 702 364 710T374 727T387 740T402 746Q415 746 418 732T422 708Q422 686 418 658T409 609Q439 603 470 601T527 583Q522 581 521 578T518 570T514
562T507 559Q496 559 484 565T461 574L459 564Q472 558 482 547T493 521Q493 513 489 508T476 503Q467 499 457 499Q440 499 425 500T392 501Q384 426 370 352T347 203L366 202Q371 202 375 202T385 203Q391 203 396 201T407 189Q390 183 372 183Q358 183 345 186L344
183Q362 180 380 180Q388 180 395 180T409 185L418 169Q420 172 425 179T435 193T446 205T456 210Q469 210 474 198T480 174Q480 154 469 142T442 123T408 114T374 112Q365 112 356 113T337 115Q338 111 345 109T362 106T379 105H391Q410 105 428 110T462 127Q448
110 427 99T383 88Q372 88 361 90T338 92Q328 92 327 73T324 28T316 -21T289 -54L280 -51Q294 -16 302 21T314 96Q308 59 299 23T276 -48L262 -42Q260 -45 257 -52T248 -67T238 -80T229 -86Q223 -86 218 -82T210 -71T205 -57T202 -45Q218 -7 230 32T246 114L245
115Q238 75 228 41T200 -29L199 -17Q199 15 209 49T224 115L234 114L228 118Q225 120 223 123L225 134ZM173 382Q173 346 189 308T235 248Q238 275 242 306T250 370T259 433T268 491Q251 485 234 478T204 459T182 429T173 382ZM268 460Q261 411 253 353T237 246L243
242Q251 292 261 351T273 461L268 460ZM226 145Q196 160 172 182T128 231T97 290T78 354Q83 322 95 290T125 230T169 180T226 145ZM269 323Q265 300 262 278T256 233L259 231L269 323ZM141 178Q158 161 178 146Q158 158 140 176Q122 194 110 214Q124 195 141 178ZM163
330Q165 315 170 301T185 273Q178 287 173 301T163 330ZM264 201L236 224L234 221L264 201ZM234 141Q234 146 227 146V145L234 141ZM101 228Q95 237 90 245Q95 236 101 228Z" />
<glyph unicode="&#xa3;" glyph-name="sterling" horiz-adv-x="671" d="M600 161Q608 161 614 149T621 130Q621 101 609 81T576 49T531 32T481 26Q431 26 385 39T290 66L285 61Q335 48 384 34T485 20Q517 20 549 29T604 61Q582 32 549 17T480 2Q424 2 370 15T263
46L250 65Q232 47 205 36T154 24Q120 24 87 29T21 41Q18 56 14 71T10 101Q10 126 19 143T43 172T79 188T122 193Q149 193 175 185T229 176Q235 183 239 191T250 209Q258 219 260 236T262 265Q262 281 247 281Q237 281 227 280T207 279Q196 285 184 285Q179 285
171 283Q169 290 166 291T162 300L177 311L175 321Q161 325 146 334T131 360Q148 374 166 384T208 394H211L242 393Q238 415 235 437T232 482Q232 516 241 548T268 606T315 647T381 663Q419 663 442 653T483 624T514 583T546 533Q538 532 534 525T522 518Q518 518
512 525T499 541T487 559T479 572L470 565Q474 557 479 544T490 517T499 490T503 468Q503 463 502 458T492 452Q484 456 469 475T439 514T410 550T393 567Q379 567 372 556T360 529T356 497T355 470Q355 447 360 425L370 381Q402 375 433 370T496 364Q506 364 513
371T531 378Q536 378 540 374T546 365Q527 355 507 350T465 344Q448 344 432 346Q421 348 410 351Q435 343 460 343Q506 343 548 361L556 346L566 352Q580 350 587 340T594 316L593 304Q562 296 532 286T469 275Q448 275 428 276T386 280Q394 274 409 273T435 272Q474
272 513 277T590 295Q586 283 578 276T560 264T539 257T516 254L491 264Q478 260 466 259T440 258Q426 258 414 261T387 265Q387 261 393 259T408 255T430 253T453 252Q466 252 476 252T490 253Q467 250 445 250Q431 250 416 251T387 254Q387 222 377 193T354 135Q383
128 411 122T469 116Q484 116 498 119T527 122L540 114Q526 103 507 101T471 98Q442 98 414 101Q388 105 362 111Q390 103 417 99Q447 94 477 94Q494 94 511 96T542 109L551 96Q555 99 562 110T576 132T590 152T600 161ZM36 57Q39 56 45 55T58 53T71 50T81 48Q68
53 55 66T42 103Q42 107 37 112T32 122V124Q29 112 29 101Q29 90 31 79T36 57ZM271 271Q269 269 267 269L266 270Q266 246 258 219T233 174L242 171Q259 190 265 218T271 271ZM79 120L155 117L152 120L76 126L79 120ZM122 173Q109 173 97 170Q103 171 109 171H120Q140
171 160 168Q176 165 193 162Q176 166 161 169Q142 173 122 173ZM359 113Q361 112 362 111Q361 112 359 113Z" />
<glyph unicode="&#xa4;" glyph-name="currency" horiz-adv-x="738" d="M688 99Q679 92 671 89Q668 101 667 114T666 140V160Q665 153 665 147T664 135Q664 123 665 112T666 88L650 83L652 78Q644 70 632 66T609 61L599 62Q600 67 600 72T601 83Q601 100 598 120T591
152Q593 138 594 125T595 97Q595 81 592 63Q581 65 578 73T575 90V97L586 104Q583 110 582 119T581 137T578 154T568 165L563 163Q572 150 573 134T575 103Q570 137 555 168Q489 134 417 134Q369 134 323 148T239 194Q231 194 219 189T195 178T171 164T152 152L136
156Q143 169 152 178T177 190Q162 190 151 180T132 158L116 163L107 157Q80 157 62 175Q69 183 78 195T99 218T120 240T139 256Q114 242 95 222T57 180L50 194Q50 204 56 211T69 226L84 225Q88 237 97 245T118 259T140 271T159 287L157 292Q135 279 115 265T76
232Q96 255 119 273T170 303Q162 329 160 356T157 412Q157 438 163 464T177 515Q156 531 136 548T98 585Q98 602 89 612Q95 617 101 623T116 632L123 626L131 633Q131 647 144 662T172 678Q179 678 184 674T194 663L203 651Q208 645 214 642Q233 646 258 646Q285
646 313 641T370 629T424 612T474 595L471 585Q480 583 490 581T509 572Q520 597 543 614T594 632L602 631L618 638Q625 631 628 620Q611 618 595 614T563 604Q580 606 596 610T629 615Q631 597 638 581T648 546L637 550Q635 549 631 549Q628 549 626 549T621 550Q613
550 606 542Q612 544 617 546T629 548Q636 548 642 543T648 531L647 527L637 529L632 539Q630 535 627 534T619 533T612 531T609 524L614 518Q616 524 621 526T633 529Q624 527 619 519T610 503Q633 470 643 431T653 351Q653 307 637 261Q665 231 675 204T686 135Q686
124 683 115L688 99ZM281 424Q281 385 286 355T305 303T346 270T417 259Q471 259 503 281T535 362Q535 389 525 413T495 457Q477 474 451 487T395 509T336 525T282 535Q293 530 301 524T309 511Q309 491 296 475L287 481L285 473L291 469Q283 460 282 448T281 424ZM650
357Q650 395 640 432T609 502L606 496Q617 484 624 468T636 433T641 396T643 361Q643 338 640 316T628 271L634 265Q643 287 646 310T650 357ZM406 138Q444 138 481 145T552 171L546 178Q514 160 478 152T404 144L406 138ZM626 316Q629 335 629 355Q629 369 628
389T622 431T609 469T586 494Q606 462 616 425T627 350Q627 332 624 314Q622 297 617 281Q624 298 626 316ZM239 625Q290 621 340 612Q389 603 436 587Q386 604 333 617Q279 631 228 633L239 625ZM301 548Q335 537 369 528T438 510Q404 522 370 531T301 548ZM178
519L181 528Q167 541 152 546L149 542L178 519ZM539 437Q536 446 531 455T521 470T509 478Q512 476 517 470T527 455T537 437Q540 432 541 428Q540 432 539 437ZM554 368Q554 378 552 388T547 408Q549 394 551 381T553 354V347L554 368ZM501 562Q488 567 475 572Q474
572 473 572L475 571Q488 566 501 560V562Z" />
<glyph unicode="&#xa5;" glyph-name="yen" horiz-adv-x="625" d="M566 338Q575 330 575 318Q575 309 571 302T561 287Q523 292 484 297T406 303H399L356 302Q406 298 456 296T554 280Q549 275 543 272T530 269Q513 269 497 271T464 274V285Q456 284 449 284T433
283Q411 283 390 285T347 289L341 281Q364 280 386 279Q402 278 418 276Q402 277 385 277H338L324 253H359Q390 253 421 252T483 247Q493 242 503 237T525 232Q524 229 524 223T524 211T521 201T512 197Q509 197 503 199L502 188Q512 182 517 179T523 165Q523 150
512 144T487 138Q467 138 448 141T409 145Q397 145 386 144T362 143Q360 123 350 99T340 54V47Q340 38 338 35T321 32L325 66Q322 56 317 45Q311 33 300 33V27Q288 22 278 22Q270 22 262 23T245 30Q251 40 254 55T260 86T263 118T264 146Q261 134 260 119T256 89T249
59T238 33L227 45Q229 53 230 68T234 92L244 91Q243 94 243 100Q243 114 246 126T252 153L244 154Q241 128 235 105Q235 108 236 115T237 131T238 145T239 154Q228 155 218 157T197 159Q192 159 184 158T169 156Q161 156 157 159T152 172Q152 173 160 174T177 175L196
176Q206 177 209 177Q195 178 181 178T152 180Q153 182 153 186Q153 191 151 197L141 196Q135 201 132 200T129 206Q129 214 132 221T139 236Q146 233 160 232T191 231T224 230T250 228L252 231Q225 231 198 233T144 243Q147 248 152 252T164 256L221 253V243Q229
245 236 245H272L267 251Q259 251 252 251T236 253H266L249 275L161 274Q150 280 137 282T111 285Q112 287 112 291Q112 296 111 300T110 308Q110 321 124 321L132 320V331Q121 336 111 345T100 369Q100 377 107 379T126 382Q136 382 145 381T161 380L196 379Q191
400 173 432T132 496T87 558T50 605Q58 608 61 616T74 624Q90 618 98 601L107 608Q101 620 97 633T93 660Q93 668 97 674T110 681Q126 681 146 663T186 617T226 554T262 487T291 427T307 387Q319 411 331 445T354 517T374 590T388 653Q389 657 390 665T394 682T401
696T412 702L418 699Q407 665 397 621T376 531T350 442Q336 400 320 369Q338 400 352 441Q366 484 377 529T400 619T423 696L436 690L439 691Q441 700 446 709T463 718Q474 718 481 704T494 682L483 650Q490 665 498 676Q500 671 502 666T504 654Q504 646 499 628T488
590T474 551T464 523L454 526Q446 491 433 449T401 375L408 374L415 389L411 374Q433 372 454 368T499 364Q505 364 512 365T527 366Q537 366 544 362T552 346Q514 346 477 348T402 355L401 354Q439 349 478 347T566 338ZM322 249L317 241Q326 241 334 241T352
240Q359 240 365 241T378 244L377 245Q377 246 377 247T378 249H322ZM276 245H288L265 276L254 275L276 245ZM333 276H323L302 241H312L333 276ZM386 376Q393 389 399 406T411 441T422 476Q426 492 431 506Q420 477 409 441Q397 404 383 376H386ZM434 440Q426 411
416 391Q423 412 432 440Q440 467 449 487Q441 467 434 440ZM342 289L331 290L326 281H336L342 289ZM432 276Q425 276 418 276Q425 276 432 276Z" />
<glyph unicode="&#xa6;" glyph-name="brokenbar" horiz-adv-x="254" d="M169 713Q182 713 193 706T204 685Q204 659 198 618T184 534T170 449T163 382Q163 378 163 374T164 366Q164 360 162 356T151 352L145 353Q146 366 147 395T149 456T154 516Q157 544 161
557Q156 545 152 517Q149 489 147 457T144 395T139 353L123 354V346Q113 339 100 339Q81 339 68 348Q73 357 76 387T81 452T84 522T86 573Q83 555 82 524T78 459T71 396T61 352L50 366Q52 377 52 382T55 398L67 407Q67 409 67 412T66 418Q66 429 67 456T71 513T75
570T77 608L76 623L75 622Q73 622 71 624Q69 610 68 580T64 517T60 453T56 409Q58 433 60 473T64 557T71 640T82 704Q97 714 103 732Q109 730 121 727T135 715L132 708L142 705Q155 713 169 713ZM169 178Q180 178 186 169T194 147T197 121T198 101V60Q198 36 197
12T193 -36T186 -77L193 -96Q190 -100 187 -103T178 -109Q174 -100 171 -90T168 -70Q168 -44 174 -18Q167 -35 167 -55Q167 -84 173 -111L158 -118L161 -124Q155 -134 145 -141T122 -148L111 -147Q111 -129 109 -106T105 -57T100 -7Q98 13 98 29Q97 26 97 21Q97
11 97 0V-33Q97 -62 99 -89T103 -146Q94 -144 89 -137T82 -121T79 -103T77 -85L88 -82Q84 -74 83 -66T82 -48Q82 -42 82 -29T83 -2T84 25T85 44Q85 61 81 74H76L75 -59Q74 -45 73 -25T72 17T71 59V119Q71 132 73 145Q84 158 84 172Q87 171 94 171Q104 171 109 172L120
164L119 160L130 159Q136 168 147 173T169 178Z" />
<glyph unicode="&#xa7;" glyph-name="section" horiz-adv-x="527" d="M325 -25Q302 -2 273 24T214 79T154 139T101 202T64 266T50 332Q50 362 62 384T94 420T139 440T192 447Q168 460 146 474T106 507T78 549T67 603Q67 640 83 669T127 720T187 752T255 764Q284
764 321 753T393 724T450 687T476 652V651Q476 646 467 643T455 637Q442 648 430 658T403 678L397 669Q408 660 416 647T425 619Q425 611 420 604T405 595Q396 600 374 607T327 622T280 635T248 641Q228 641 214 631T190 603Q190 594 204 584T238 564T283 542T327
521T362 501T377 482Q411 442 423 389T436 284Q436 233 423 185T372 100Q394 76 415 49T436 -12Q436 -70 406 -104T330 -156T233 -179T136 -185Q127 -185 117 -182T102 -171Q117 -167 132 -166Q146 -165 159 -163H151Q140 -163 128 -163T105 -162V-145L78 -146Q71
-144 62 -139T53 -125Q53 -113 63 -105T82 -91Q93 -92 111 -93T152 -94Q183 -94 216 -91T278 -80T326 -56T346 -14L342 -10Q338 -39 321 -54T281 -77T231 -86T181 -88Q159 -88 138 -87T95 -84Q114 -75 136 -72T180 -67T225 -64T269 -57L273 -67Q290 -61 306 -52T325
-25ZM328 272Q328 313 327 337T316 379T286 409T230 443Q232 434 239 428T255 418T273 411T290 403Q310 379 316 347T323 285Q323 262 320 240T306 197Q321 234 321 277Q321 284 319 303T313 344T302 381T289 399Q275 405 262 412T234 427Q234 421 229 418T216
413T200 411T188 410L190 399Q197 399 208 398T231 392T251 382T259 366Q259 357 248 352T223 342T194 335T174 325Q181 300 194 280T223 243T256 208T289 171L303 192L313 187Q321 207 324 228T328 272ZM178 121Q195 106 214 87L253 49Q273 30 292 13T328 -14Q257
58 182 126L178 121ZM217 449Q194 462 171 473T127 501L124 496Q141 481 160 470T200 448L217 449ZM347 282Q347 296 345 313T339 347T329 379T314 407Q310 412 306 416T297 424L313 407Q330 381 336 346T343 280Q343 266 342 250T337 219T326 189T308 165L309
163Q331 184 339 218T347 282ZM414 1Q414 -35 401 -63Q406 -54 411 -46Q417 -37 417 -26V-23L416 9Q409 19 403 28Q399 35 394 42Q398 35 400 27Q403 17 414 9V1ZM403 389Q401 397 398 403V404L403 389ZM391 49Q393 45 394 42Q393 46 391 49Z" />
<glyph unicode="&#xa8;" glyph-name="dieresis" horiz-adv-x="443" d="M419 714Q421 709 422 703T423 690Q423 681 422 674T418 659L415 661Q410 664 401 666T383 671T366 674T355 675Q350 675 346 675T337 674Q357 670 376 669T415 653V650Q415 647 416 645T417
642L416 641Q410 643 401 644T385 647L381 657Q373 655 369 655Q359 655 349 658T329 662Q324 662 318 660T312 652Q317 653 321 653H331Q341 653 350 651Q356 650 362 649H356H344Q326 649 314 648T282 647H276Q271 653 268 654T262 656T258 661T257 677Q257 683
257 688T262 693L265 692V703Q259 709 256 720T253 742Q253 759 260 764T278 770Q283 770 288 770T298 769Q306 769 310 771T323 774Q326 774 335 771T355 764T377 757T395 754Q398 754 401 755T406 756Q413 756 414 750T415 736H404H397Q404 734 408 730Q414 725
414 714H419ZM162 723Q163 719 163 712Q163 703 162 695T158 678L156 669L155 671Q152 675 141 680T122 685Q120 685 116 685T106 684T97 684T91 683Q97 682 106 682T125 679T143 673T154 662Q150 651 149 651L144 654Q143 655 140 656L137 668Q135 666 130 666Q128
666 122 666T110 668T98 669T89 670Q82 670 78 665Q79 663 79 659Q86 662 95 662Q98 662 103 662T116 661T128 659T137 657Q129 659 124 659Q118 659 109 658T90 655L71 652Q62 651 56 650H52Q49 655 46 657T39 664T35 673T33 690Q33 694 37 694L36 705Q29 712
25 727T20 754Q20 761 26 766T41 774T59 779T73 781Q75 781 84 779T106 773T129 767T147 764Q149 764 152 764T157 765Q162 765 162 754Q162 752 162 750T161 745Q148 748 126 750T90 759Q97 755 106 753T126 749T145 745T160 740Q160 736 160 732T159 724L162
723ZM346 750Q354 745 362 743L366 742Q364 743 362 743Q355 746 346 750ZM369 648Q366 648 363 649Q366 648 369 648Z" />
<glyph unicode="&#xa9;" glyph-name="copyright" horiz-adv-x="1023" d="M489 -71Q513 -73 538 -74T590 -75Q655 -75 719 -66T837 -29Q856 -19 872 -7Q840 -29 796 -41Q747 -55 683 -59T535 -63Q422 -63 332 -29T180 68T84 222T50 426Q50 489 76 548T147 654T250
728T373 756Q393 756 413 754T453 746L459 755Q452 760 443 761T424 763H370Q343 763 317 762L309 767Q310 778 321 787T346 804T376 815T400 819Q481 819 556 791T699 719Q640 758 576 786T441 824Q452 825 461 825H482Q517 825 558 812T644 778T731 728T813 668T882
604T933 544L924 538Q954 491 963 437T973 328Q973 238 964 174T933 66Q914 27 885 2Q908 22 926 46Q963 95 973 173Q973 92 937 43T846 -33T722 -68T590 -77Q564 -77 539 -77T489 -71ZM173 441Q173 347 202 267T300 121Q327 95 358 81T423 59T492 50T563 48H653Q728
48 770 64T834 112T860 192T866 305Q866 362 857 417T811 519Q789 546 750 575T667 632T577 680T499 713Q499 706 496 705T488 703Q457 703 428 711T368 720V709Q415 709 459 687T535 630L520 623Q486 624 454 634T387 645Q354 645 316 626T247 577T194 511T173
441ZM430 175Q416 183 407 202T393 243T385 288T382 325Q382 368 390 410T419 486T472 541T557 562Q583 562 607 554T653 532T691 497T718 454Q713 452 706 448T694 443Q686 443 677 455T663 472L656 465L665 437L653 413L642 408L635 410Q634 409 633 409Q630
409 630 410Q610 421 591 430T548 439Q541 439 535 437T526 427L525 426Q521 392 513 360T504 293Q504 285 506 277T509 258L519 252Q534 243 565 237T629 224T685 212T710 198L709 193Q686 195 658 196T601 202T546 216T501 240Q516 223 542 214T597 200T656 193T707
188L705 172L726 170Q732 167 737 162T743 148Q743 137 734 129T717 116Q666 127 614 132T517 154T443 204Q413 238 408 304Q408 262 421 232Q434 202 456 183T508 152T571 133T638 122T706 110Q689 101 670 101Q639 101 609 107T548 121L550 132Q472 142 434 182T395
302Q395 335 398 367T407 432L404 430L401 432Q386 375 386 316Q386 294 389 277T399 243T413 210T430 175ZM959 290Q959 338 957 382T945 466T911 541T846 608Q884 570 906 538T939 472T953 397T956 305Q956 274 955 238T948 167T930 99Q919 67 899 42Q920 66
932 95Q945 126 951 159T958 225T959 290ZM462 744Q535 723 603 690T732 612Q671 661 606 695T462 744ZM281 -10Q329 -37 382 -50T489 -71Q435 -69 382 -57T281 -16V-10ZM739 -40Q752 -39 766 -34L593 -48L739 -40ZM888 326Q888 354 885 383Q886 366 886 348T887
313Q887 232 875 151Q884 194 886 238T888 326ZM430 175Q445 162 461 150Q476 140 493 133Q475 139 458 147Q440 157 430 175ZM806 551Q811 546 816 540T828 529L826 533L806 551ZM488 270Q490 259 494 250L488 270ZM497 132Q495 132 493 133Q495 132 497 132Z"
/>
<glyph unicode="&#xaa;" glyph-name="ordfeminine" horiz-adv-x="451" d="M401 511Q401 469 390 437T358 369Q332 365 305 363T251 360Q217 360 182 366T117 388T69 430T50 499Q50 524 58 546T75 592Q103 600 131 610T190 621Q199 621 210 619T226 608Q191 602
155 597T85 579Q80 563 75 547Q71 533 71 517Q73 533 77 546Q81 560 87 575Q119 589 154 593T224 598V581L249 583Q256 581 262 577T272 566Q272 573 270 588T262 618T250 644T234 656H191Q171 656 152 653T112 648Q110 652 110 655T108 662Q108 668 113 671T125
676T139 679T150 680L148 690Q141 690 130 691T108 696T90 706T82 723Q82 736 101 745T145 759T194 767T230 770Q280 770 313 745T365 681T393 597T401 511ZM376 122H373Q357 122 341 124Q356 121 371 115Q365 107 355 104L338 107Q333 108 322 109L310 120Q304
119 299 119T288 118Q268 118 249 121T209 124Q204 124 195 123T185 115Q216 114 246 114T308 109Q273 112 240 112Q205 112 171 111T103 109Q96 113 90 114T79 118T71 125T68 142Q68 150 71 152T83 155V166Q60 179 60 205Q60 216 73 222T105 232T141 235T170 236Q212
236 252 226T335 216Q340 216 345 217T356 218Q362 218 366 214T370 198Q340 200 310 202T250 212Q279 202 309 200T369 193Q368 190 368 185Q368 179 369 177H378Q385 167 385 154Q385 146 382 138L376 122ZM246 527L226 529Q216 530 205 530Q181 530 166 522Q171
522 176 522T186 523Q197 523 209 522L233 520Q219 513 194 508T152 501Q156 489 167 483T193 473T221 469T247 468H251Q257 468 264 469T271 477Q264 477 251 476T224 475Q202 475 183 479Q167 483 163 495Q166 490 173 487Q182 483 193 481T215 479T232 478Q246
478 261 481T276 503Q276 517 276 530T274 557Q270 547 262 540T246 527ZM278 456V457Q269 456 253 456T227 455Q216 455 203 457T178 465T155 478T141 497Q141 484 148 476T165 462T188 454T211 452L278 456ZM279 539Q279 525 278 511T277 482Q287 482 287 495Q287
506 287 517T285 540L279 539ZM199 383Q171 388 146 398T100 427Q82 445 74 472Q82 443 100 425Q119 406 144 396T197 381Q223 378 247 378Q224 379 199 383ZM320 130Q294 138 268 138H265L230 137Q265 133 301 131Q314 130 326 128Q323 129 320 130ZM146 536Q143
522 138 522T126 514L141 518V503L142 504Q142 513 144 517T157 521L162 527Q152 525 145 523Q147 528 148 531T151 537L146 536ZM274 470H277Q285 470 285 479L276 478L274 470Z" />
<glyph unicode="&#xab;" glyph-name="guillemotleft" horiz-adv-x="661" d="M611 526Q611 508 599 487T568 443T525 398T478 354T434 315T401 284Q420 268 434 249T461 208Q465 200 476 188T500 163T521 140L531 131L530 124Q509 129 493 140T463 169Q475 151
491 138T528 119L524 106Q532 103 545 95T559 78Q559 67 551 59T533 47Q502 54 479 66T438 95T403 133T369 178Q384 155 399 134T431 95T470 63T520 42Q515 40 511 39T501 38Q480 38 461 47T426 71T397 103T372 136L381 143Q364 161 354 173T337 194T323 207T307
218T280 230T238 245Q264 287 290 325T351 398L347 402Q325 383 309 364T279 326T253 284T226 237Q260 227 279 222T312 208T337 186Q347 173 363 149Q347 172 336 184Q324 198 310 205T275 218T221 232Q241 267 259 300T304 364Q325 386 356 412T420 465T479 517T520
565Q525 560 535 557T546 546Q546 541 542 534T535 523L543 517Q553 525 566 533T593 542Q600 542 605 538T611 526ZM248 53Q232 53 216 60T184 77T154 100T129 122L136 130Q102 156 81 193T60 273Q60 311 76 347T109 417L107 416L104 420Q83 385 68 351T53 274Q53
244 63 216Q72 188 89 164Q71 187 61 214Q50 241 50 271Q50 309 64 349T102 427T153 500T208 559Q221 571 235 580T262 603Q267 597 275 592T284 579Q284 575 278 568T269 558L277 551Q286 556 295 560T316 564Q326 564 333 559T341 543Q341 531 328 513T296 471T255
422T213 369T181 316T168 266Q168 245 186 226T227 190T268 160T287 139L283 129Q263 140 240 154T197 185T164 223T150 271L149 263Q149 241 163 221T198 182T240 150T280 125L272 110Q280 108 286 101T293 85Q293 71 282 64T259 55Q239 74 215 90T168 124T123
160T89 204Q101 180 119 160T160 121T204 86T248 53ZM274 277Q269 270 265 264T257 250L260 249L274 277ZM284 242Q300 237 314 230T342 212Q326 226 315 231T284 242ZM387 269Q392 262 398 256T409 244L388 270L387 269ZM366 145Q364 147 363 149Q364 147 366
145Z" />
<glyph unicode="&#xac;" glyph-name="logicalnot" horiz-adv-x="533" d="M50 472Q50 483 68 489T113 499T168 504T218 505Q286 505 351 500T483 488L482 439Q482 422 481 394T477 339T470 293T458 273Q455 273 451 275Q458 319 460 367Q459 345 456 323Q453 300
446 277L430 281Q430 273 425 268T411 262Q400 262 391 269T374 284Q383 301 384 320T388 359Q384 342 379 325T369 290L363 300Q360 305 360 310Q360 325 363 340T367 370H378L371 380L367 374Q362 379 349 380T326 382Q272 382 220 381T114 377Q87 388 61 388L62
394Q62 399 62 403T61 411Q61 418 65 420T83 423V434Q71 439 61 448T50 472ZM387 392Q380 393 364 393H341Q318 393 299 389L300 388Q300 387 300 386T299 384H387V392ZM464 466Q462 450 462 436Q462 426 461 414Q463 427 465 438Q467 453 469 469Q455 471 439
472Q425 473 413 474Q425 472 437 470Q450 468 464 466Z" />
<glyph unicode="&#xad;" glyph-name="uni00AD" horiz-adv-x="416" d="M169 254Q177 254 185 254T201 255Q225 255 248 253T296 248Q263 251 229 251Q196 251 163 250T95 248H83Q75 253 69 254T57 258T50 265T47 283Q47 288 49 291T56 295L62 305Q51 311 46 321T40
343Q40 360 54 366T85 372Q96 372 106 371T127 370Q143 370 158 372T188 375Q197 375 213 374T248 371T285 365T318 356Q325 356 332 357T346 358Q356 358 358 353T360 341V338Q330 338 300 339Q274 341 249 346Q273 340 300 339Q331 337 360 332Q358 324 358 320Q358
319 358 318T359 316L368 314Q376 305 376 292Q376 276 366 261L362 263Q337 271 303 274T247 277Q239 277 231 277T215 276Q252 272 289 270T362 254Q353 243 345 243Q333 245 325 246T305 248L298 259Q293 258 288 258T277 257Q257 257 239 260T201 264Q186 264
168 259Q169 258 169 256V254ZM244 348Q246 347 249 346Q247 347 244 348Z" />
<glyph unicode="&#xae;" glyph-name="registered" horiz-adv-x="1130" d="M636 -36Q730 -36 810 -13T949 59T1043 180Q1074 248 1079 339Q1075 247 1043 178Q1008 104 948 56T806 -16T630 -40Q562 -40 493 -28T360 9T239 71T140 158T74 272T50 413Q50 507 84 571T176
675T309 733T467 753L471 731Q467 725 451 721T415 713T377 708T350 705L352 695Q357 696 366 696H389Q409 696 434 695T480 691T516 683T531 668Q531 663 517 659T485 652T450 646T427 643Q375 635 329 621T248 579T193 511T172 410Q172 350 193 303T251 219T334
158T434 116T541 92T645 84Q715 84 774 99T875 147T942 233T966 363Q966 443 939 497T872 587T783 642T693 674T619 693T582 712L584 717Q655 706 725 685T854 622Q797 664 729 687T590 721L593 737Q586 738 565 740T520 746T479 755T461 768Q461 775 472 780T497
789T526 795T545 797Q573 797 600 794T655 786L582 801Q646 801 719 784T857 734T973 650T1044 534L1039 520Q1056 480 1064 438T1073 352Q1073 253 1039 182T945 64T806 -5T635 -27Q556 -27 481 -9T332 35L329 27Q404 2 480 -17T636 -36ZM659 413Q659 395 647
379T618 353Q626 345 653 328T711 293T765 258T790 236L785 229Q745 255 705 279T627 333Q664 304 703 278T780 226L771 214Q775 211 782 205T796 191T808 177T813 164Q813 154 804 152T788 149Q781 149 775 150T761 153Q734 172 702 192T635 232T568 274Q567 275
566 276Q596 255 627 235Q659 215 689 195T744 156Q718 162 684 181T616 223T550 271T498 314L497 317L488 324Q502 289 510 256T531 179H522L519 172L423 159Q417 164 409 183T393 229T376 287T361 346T350 396T346 429Q346 462 354 492T378 547T421 585T484 600Q522
600 554 585T609 543T646 483T659 413ZM473 412L475 395L480 396L489 413L521 415L524 403L551 408Q551 419 546 435T531 465T511 490T486 501Q476 501 471 493T463 475T460 453T459 435Q459 430 459 425T461 414L462 412Q462 402 465 393L469 394V412H473ZM1059
360Q1059 429 1041 486T988 591T904 675T794 740Q851 713 899 675T982 588T1037 482T1057 360Q1057 281 1032 217T962 105T852 28Q790 0 716 -9Q794 0 857 26Q921 54 966 100T1035 212T1059 360ZM993 362Q993 376 989 390Q985 403 982 417Q984 402 985 388Q987
374 987 360Q987 288 958 226T867 117Q899 132 922 160T962 222T985 293T993 362ZM469 415Q466 431 466 448Q466 453 466 461T469 476T476 488T487 493Q497 493 507 485T525 464T539 438T545 416L549 417L544 413Q544 423 539 435T527 458T510 477T491 490L478
486Q476 472 474 453T472 419V416L473 415H469ZM566 412Q566 402 559 398T545 393Q555 393 562 397T570 415Q570 429 563 446T545 479T520 504T490 515L480 514Q497 514 512 504T540 479T559 446T566 412ZM628 386Q639 400 639 414Q639 455 618 493T563 555Q595
530 616 493T637 415Q637 401 625 389T602 367Q617 373 628 386ZM521 416L490 415Q492 420 496 424T507 429Q510 429 514 427L521 416Z" />
<glyph unicode="&#xaf;" glyph-name="overscore" horiz-adv-x="310" d="M285 727Q290 717 290 707Q290 696 287 690T280 673Q253 685 220 688T160 694Q189 689 218 686T276 666Q272 661 270 659T262 656Q254 656 246 658T228 663L225 674Q222 673 218 673H212Q195
673 179 677T146 682Q133 682 122 678V673Q149 673 169 671T215 664Q192 666 170 667T124 668H54Q48 674 43 675T34 677T28 682T25 696Q25 704 26 709T33 715Q34 715 35 715T38 714V725Q30 731 25 742T20 764Q20 781 31 786T57 792Q66 792 74 791T92 790Q103 790
114 792T137 794Q144 794 156 793T182 790T211 783T238 773Q240 772 245 771T253 769Q257 769 260 769T267 770Q274 770 277 767T280 758Q280 756 280 754T279 750Q253 752 227 756T178 768Q201 758 227 755T279 744Q277 734 277 728L285 727Z" />
<glyph unicode="&#xb0;" glyph-name="degree" horiz-adv-x="435" d="M225 529Q190 529 158 538T102 565T64 612T50 679Q50 749 90 793T194 859L203 833V827Q210 829 215 829T228 830Q249 830 269 822T306 801T339 772T364 740L354 734Q377 702 377 662Q377 630
364 607T330 570T281 549T225 542Q196 542 168 547T113 568Q113 564 110 564Q136 545 165 539T226 533Q258 533 286 542T336 568T370 611T383 669V679Q383 685 382 690Q385 676 385 664Q385 631 372 606T336 563T284 538T225 529ZM172 674Q172 664 180 659T201
651T224 648T242 647Q250 647 260 651T270 666Q270 688 260 698T236 713T212 721T198 732Q187 720 180 706T172 674ZM188 818Q218 816 248 805T304 775T344 730T360 669Q360 642 350 622T324 589T286 567T241 555Q262 556 284 564T324 586T352 619T363 664Q363
698 349 725T311 772T259 806T199 825L188 818ZM207 741Q221 739 236 733T263 718T283 695T291 666Q291 655 284 647T268 637Q278 637 285 646T292 666Q292 681 285 694T265 717T239 734T212 745L207 741Z" />
<glyph unicode="&#xb1;" glyph-name="plusminus" horiz-adv-x="537" d="M507 276Q507 265 502 256T489 238Q481 245 464 250T427 258T387 262T357 263V260Q389 258 422 255T484 232L468 224Q456 224 445 227T421 233V244Q416 243 411 243H402Q390 243 379 244T356
247L355 241Q362 239 374 238T394 236L355 237Q354 224 353 212T351 187Q351 179 354 173T357 158Q357 151 352 149T341 145Q338 159 336 173T333 201L332 189Q332 178 333 167T336 144L319 140L322 131Q317 123 309 118T290 112Q281 112 276 119T268 136T264 159T263
181Q262 166 262 151T261 121Q250 127 245 138T239 162Q239 168 240 171L244 196L252 201Q248 214 248 231Q229 229 215 229T188 228Q180 232 173 233T159 237T150 244T146 261Q146 274 157 274L163 273V284Q153 289 145 299T137 321Q137 331 142 337T156 347T173
352T192 353L228 352Q235 352 238 362T241 386T243 418T247 450T258 475T281 485L291 468H302Q308 479 318 485T341 492Q350 492 355 488T364 476T367 461T368 445Q368 429 366 414T364 382Q364 370 374 363T399 352T432 346T465 342T491 335T501 322Q501 318 499
314Q467 323 433 326Q400 329 367 334Q399 326 431 322Q465 319 497 309L493 293Q500 293 503 288T507 276ZM420 66Q424 66 429 66T440 67Q450 67 457 64T465 50V47Q422 49 380 54T295 72Q336 57 378 52T464 42Q462 38 462 34Q462 29 464 25H475Q486 16 486 1Q486
-16 472 -30Q458 -24 431 -20T372 -12T311 -6T264 -1Q315 -10 365 -16T466 -37Q461 -41 456 -44T444 -47Q427 -47 415 -44T385 -38L376 -28Q372 -28 369 -28T362 -29Q325 -29 290 -20T219 -10L199 -11V-17Q237 -19 274 -24L336 -33Q277 -26 218 -23Q152 -19 86
-14Q65 -2 40 -2Q41 0 41 4Q41 9 40 13T39 21Q39 34 52 34L60 33V44Q49 49 40 58T30 82Q30 91 35 96T49 105T66 109T82 110Q167 110 246 95T410 67L420 66ZM350 -35Q346 -34 342 -34Q346 -34 350 -35ZM341 -34Q339 -33 336 -33Q338 -33 341 -34Z" />
<glyph unicode="&#xb2;" glyph-name="twosuperior" horiz-adv-x="523" d="M55 310Q86 334 126 366T203 436T271 512T313 590L307 592Q296 565 275 534T227 473T173 417T121 374Q143 391 176 426T241 502T294 585T317 657L271 667Q250 660 231 643T194 614Q192
622 187 626T179 638Q184 648 192 656T210 669L204 677Q193 672 182 668T158 664Q149 664 142 668T135 681V690Q154 728 191 754T272 781Q300 781 329 772T383 746T422 705T437 648Q437 603 428 570T401 509T361 455T312 396Q320 396 342 398T387 401Q404 401 417
398T430 387L429 382Q395 382 362 381T295 379L294 378H393Q410 378 427 377L424 367L441 360H452Q460 356 466 350T473 335Q473 326 462 318T443 305Q429 310 414 310T385 311Q369 311 353 310T321 307Q349 306 376 305T432 299Q410 289 386 287T339 284L255 285V295Q232
290 210 289T164 287L73 288L68 284Q109 283 149 283H230Q205 281 180 281H68L50 315L112 366L54 313L55 310ZM68 304H195Q203 304 211 305L210 306Q185 310 160 310T109 311H77L68 304ZM220 439Q202 417 182 397Q189 397 200 408T222 433T244 462Q252 474 257
480Q238 460 220 439ZM178 393Q158 373 137 357T95 325Q116 340 139 354T179 389L178 393Z" />
<glyph unicode="&#xb3;" glyph-name="threesuperior" horiz-adv-x="582" d="M318 231Q309 231 289 232T244 236T191 242T141 252T103 265T88 281L91 287Q142 270 190 261T292 251Q327 251 366 255T437 272T491 313T513 385Q513 406 508 427Q504 447 495 465Q503
447 505 429Q508 410 508 389Q508 347 489 321T440 279T374 258T305 252Q248 252 198 261T95 291L101 307Q94 309 86 312T69 320T56 331T50 347Q50 354 55 358T68 364T84 366T97 367Q116 353 141 344T195 329T250 322T301 320Q317 320 341 321T387 329T425 348T441
385Q441 411 427 430Q416 447 397 457Q438 434 438 383Q438 363 424 352T389 334T348 325T312 323Q258 323 210 334T113 368Q138 368 161 364T208 356T254 347T303 343H316Q323 343 330 344L331 334Q340 335 356 337T387 346T413 360T424 382Q424 408 412 428T379
461T335 482T288 491L267 484Q290 484 316 478T365 460T403 428T418 381Q418 370 406 363T386 353Q406 361 415 379Q412 412 389 432T335 462T270 476T210 480V573Q215 572 224 572Q255 572 279 591T303 646Q303 653 298 662T290 680Q276 688 260 693T227 699Q221
699 213 697L199 703L188 711Q193 720 201 724T220 729L219 740Q207 740 195 739T173 729Q165 715 156 702T136 675Q129 675 125 679T119 689T117 701T116 713Q116 738 128 756T158 785T200 802T244 808Q281 808 314 798T372 767T411 717T425 646Q425 635 423 622T413
595T394 570T360 551Q393 549 424 535T479 497T517 443T532 380Q532 336 512 307T461 261T392 238T318 231ZM392 460Q393 459 394 458Q393 459 392 460ZM394 458Q396 458 397 457Q395 458 394 458Z" />
<glyph unicode="&#xb4;" glyph-name="acute" horiz-adv-x="335" d="M90 594Q85 594 81 597T74 605Q118 639 170 655Q144 650 119 637T71 609Q69 613 67 616T61 622L55 617Q39 621 30 634T21 660L25 662Q51 673 83 692T144 728Q114 714 85 697T20 668Q20 685 31
692T59 707L71 701Q82 712 95 719T122 732T148 745T172 764Q170 764 170 768Q147 753 124 741Q102 729 78 716Q115 738 151 761Q188 784 236 809Q239 808 246 808Q259 808 270 814Q272 807 277 799T282 784Q282 777 273 776L278 766Q291 764 303 752T315 729Q315
715 306 707T279 693Q265 686 247 675T207 651T162 628T113 612Q107 610 101 602T90 594Z" />
<glyph unicode="&#xb5;" glyph-name="mu" horiz-adv-x="573" d="M256 29Q250 29 244 30T232 32Q236 32 240 32H248Q277 32 307 41T360 68L359 75Q333 62 309 51T254 40Q250 40 242 41T225 44T209 49T198 55V46L218 36Q206 36 197 42Q195 -55 184 -150T140 -337L129
-332Q127 -333 124 -333Q112 -333 112 -319Q112 -300 117 -283T127 -247L117 -245Q114 -255 108 -272T92 -305T72 -334T48 -346Q43 -346 42 -340T40 -330Q40 -290 45 -251T55 -173T66 -95T71 -16Q71 3 70 35T69 106Q69 136 70 176T74 260T84 346T101 423T125 479T159
505L228 515Q228 510 228 504T229 490Q229 461 227 427T225 371Q225 366 224 347T221 304T218 255T217 218Q217 192 228 171T250 149Q266 149 281 155T309 171T334 192T357 215V230Q357 260 355 308T348 414L345 452L358 453Q363 476 381 490T423 504H425L473 503Q473
486 475 453T480 385T485 316T488 266Q488 244 483 224T467 184V173Q478 196 486 218T494 266Q494 276 493 301T489 356T485 410T483 446Q485 436 487 411T491 356T494 302T495 266Q495 240 488 217T467 170Q467 138 469 106T480 42L473 31Q465 37 460 52T453 84T451
119T450 146L447 143V129Q447 117 447 103T450 75T456 49T468 29L455 17Q461 13 472 6T494 -9T514 -26T523 -42Q523 -47 519 -49T509 -53T497 -55H488Q460 -55 441 -43T410 -11T392 33T382 80L376 76Q380 44 389 14T425 -38Q396 -22 382 6T361 65Q338 50 312 40T256
29ZM254 55Q239 55 226 61T198 70Q210 61 225 57T256 53Q270 53 286 57T319 69T351 85T378 102L377 105Q365 97 350 89T319 73T285 60T254 55ZM367 426Q367 443 375 462T402 489Q383 482 374 465T365 428Q365 417 366 391T368 335T371 280T375 243L377 248Q376
258 374 283T371 336T368 390T367 426ZM465 412Q466 407 467 386T469 341T470 296T471 269Q471 257 469 245T466 221Q469 229 471 240T474 259Q474 266 474 288T472 335T470 383T466 411L465 412ZM387 217Q378 209 365 197T336 172T305 149Q291 140 280 134Q291
138 305 148Q320 158 335 170T365 194T387 215V217ZM425 493Q420 493 414 491Q417 492 424 492Q433 492 442 491T462 489Q462 476 461 464T460 440V432Q460 428 461 424Q461 441 462 457T464 491Q454 492 445 492T425 493ZM376 79L382 83L381 90L375 86L376 79Z"
/>
<glyph unicode="&#xb6;" glyph-name="paragraph" horiz-adv-x="527" d="M349 548Q349 521 344 496T331 444T318 393T309 340Q305 293 305 248T304 156Q304 110 312 68T321 -18Q321 -22 318 -31T310 -40Q306 -40 303 -32Q301 -27 299 -19Q299 -22 299 -25Q300 -32
302 -39Q285 -39 285 -48Q285 -57 291 -61T303 -67T316 -73T322 -83Q322 -100 306 -109T275 -123Q265 -111 256 -99T237 -76Q228 -7 221 62T214 202Q214 246 217 289T221 376Q214 345 213 314T211 251Q211 172 215 94T227 -62Q214 -41 207 -14T197 44T194 103T192
157L202 163Q196 215 196 268Q196 294 198 321T205 374Q200 374 197 364T193 338T191 307T190 279V262L191 169Q189 202 189 234V300Q189 319 189 337T195 374Q163 374 134 383T81 409T44 451T30 510Q30 544 46 575T88 631T148 670T217 685Q280 685 314 648T349
548ZM446 601Q457 601 463 589T473 561T476 528T477 502Q477 448 473 394T464 285T454 177T450 69Q450 59 452 46T455 21Q455 10 451 2T434 -7L432 22Q432 15 429 2T416 -11Q420 -17 424 -26T428 -44Q428 -52 423 -59T408 -66Q383 -66 372 -50T361 -11Q361 58 364
127T369 266Q364 206 363 146T360 25L359 24Q357 14 355 5T353 -14Q353 -27 356 -37Q349 -25 345 -11T340 18L342 99L351 104Q348 126 348 150Q348 191 353 231T358 313Q358 324 358 334T356 356H350Q349 299 346 243Q343 192 341 139Q341 225 346 309Q351 397
351 487Q351 512 356 535T362 584Q364 583 368 583Q372 583 376 584T384 585Q394 585 396 577T398 561V557H408Q410 563 413 570T422 584T433 596T446 601ZM178 473Q187 468 202 468T227 467Q228 475 229 489T231 519T232 549T233 572L227 583Q195 583 174 567T153
522V517Q153 512 153 505T156 490T162 477T173 472Q175 472 175 472T178 473ZM246 552Q246 562 244 571T239 589Q237 587 236 587H235Q238 576 238 564Q238 557 237 544T235 515T233 487T231 467Q237 467 240 479T244 506T246 534V552ZM282 222Q282 189 283 156T287
91Q285 121 284 150T283 201Q283 245 286 288T296 374Q287 336 285 298T282 222ZM434 170Q432 142 432 113Q434 141 436 169Q439 199 443 228Q437 199 434 170Z" />
<glyph unicode="&#xb7;" glyph-name="middot" horiz-adv-x="375" d="M112 255Q108 263 108 266Q108 272 118 276L110 291Q99 293 89 303T72 325Q62 342 56 358T50 388Q50 402 59 407L98 441Q102 444 115 445T146 447T180 452T211 463Q216 466 220 470T230 477Q234
479 236 479Q242 479 247 473T258 458Q243 450 233 444T212 431T192 420T165 410Q181 412 192 417T213 428T234 440T262 451Q262 446 265 440Q269 432 274 431L280 434Q294 425 306 407Q310 399 313 391T319 377L321 363Q298 361 271 350T229 331Q220 326 213 320T197
306Q226 321 254 336T319 352H324V345Q324 333 320 332L302 325Q295 322 287 317L273 329Q265 319 253 311Q241 304 228 300T203 288Q194 283 187 277T175 259Q177 257 177 257T179 253Q192 264 204 273T231 291Q255 304 282 314Q277 311 273 310T263 305Q245 294
237 286T222 269T204 250T169 225Q164 226 159 226T150 227Q138 227 128 222Q126 230 120 238T112 255Z" />
<glyph unicode="&#xb8;" glyph-name="cedilla" horiz-adv-x="369" d="M342 -92Q347 -102 348 -112T349 -137Q349 -184 331 -213T286 -258T227 -281T165 -287Q143 -287 120 -285T76 -279T43 -270T30 -257Q30 -254 33 -249Q54 -255 68 -259T96 -264T125 -266Q139
-267 156 -267Q124 -265 98 -262Q71 -258 35 -244Q37 -240 39 -237T41 -229Q36 -229 28 -224T20 -208Q20 -194 49 -173Q63 -187 91 -192T167 -198Q186 -198 195 -194Q201 -191 210 -187Q192 -192 178 -193Q160 -195 134 -195Q115 -195 96 -191T57 -169Q67 -164
75 -164Q91 -164 97 -166T109 -169L113 -180H138Q154 -180 171 -179T202 -175T225 -166T234 -147Q234 -146 229 -143Q229 -157 214 -165T167 -173H151Q144 -173 136 -172H153Q182 -172 196 -168T217 -159T223 -148T226 -139Q224 -116 216 -104T199 -84T183 -71T175
-56V-54L233 -16Q264 -17 295 -37T342 -92Z" />
<glyph unicode="&#xb9;" glyph-name="onesuperior" horiz-adv-x="411" d="M360 664Q357 624 350 584T336 502T324 420T319 340Q319 335 319 330T320 318Q320 310 318 305T307 300L302 301Q305 369 311 436T328 570Q314 504 309 437T297 303Q295 303 292 303T287
304Q283 304 281 303L280 285Q276 278 271 273T257 268Q247 268 239 275T226 290L256 623Q251 584 247 543T240 461T231 379T219 299Q214 307 211 316T208 336Q208 361 211 386T217 437H228Q227 444 227 451V466Q227 505 233 550T244 634L235 630Q231 592 227 549T220
467Q222 510 225 544Q226 559 227 573T228 599T230 619T231 629L108 578Q106 585 101 590T95 603Q98 610 105 615T120 622L115 632Q111 631 105 631H93Q78 631 64 634T50 650Q50 663 63 674T96 694T141 713T188 731T229 750T256 772L361 721L360 664Z" />
<glyph unicode="&#xba;" glyph-name="ordmasculine" horiz-adv-x="456" d="M237 357Q193 357 161 375T107 422T75 490T64 567Q64 603 70 644T93 719T139 775T214 798Q234 798 258 787Q233 797 214 797Q171 797 143 775T99 718T75 645T68 571Q68 530 78 490T115
418L120 421Q94 455 85 496T76 580Q76 613 81 649T100 717T141 768T208 789Q239 789 266 774L283 778Q305 768 325 751T360 711T384 664T393 614Q393 608 393 602T391 590Q396 569 401 548T406 504Q406 473 391 446T351 400T296 369T237 357ZM212 276Q218 276 234
275T271 270T314 262T354 253T384 243T396 232Q396 230 395 227T393 222Q359 236 323 241T251 253Q268 248 286 245L322 239Q340 236 357 231T391 218L385 202L396 189Q396 177 388 167T372 149Q353 161 325 169T274 178H271L234 177Q247 176 266 175T304 171T340
162T366 144L353 136Q342 136 336 141T320 148L315 159Q310 158 301 158Q283 158 265 161T228 164Q217 164 208 163T188 158V153Q202 154 215 154T242 155Q254 155 266 154T290 151Q283 152 276 152T262 153Q224 153 185 148T99 142Q90 146 83 147T71 150T62 157T59
176Q59 184 64 185T75 187V197Q64 202 57 212T50 234Q50 249 71 257T120 270T174 275T212 276ZM239 459Q254 459 263 467T278 487T284 512T286 536Q286 547 284 558T282 581Q282 586 282 589T284 598Q279 609 274 624T261 652T242 675T216 684Q205 684 199 671T190
642T187 608T186 584Q186 572 188 551T195 509T211 474T239 459ZM209 776Q186 776 169 768T139 745T117 713Q108 696 103 679Q109 696 119 712Q129 730 144 743T181 765T229 774H231Q226 775 220 775T209 776ZM212 705Q227 705 240 694T266 668T288 636T305 608Q300
622 291 639T270 671T243 696T211 706Q200 706 192 698T179 678T172 654T170 633Q172 641 174 653T180 677T192 697T212 705ZM383 610Q372 648 352 680T301 739Q326 716 343 685T372 621L383 610Z" />
<glyph unicode="&#xbb;" glyph-name="guillemotright" horiz-adv-x="714" d="M273 99Q261 99 254 105T246 124Q246 136 253 150Q282 156 318 172T391 210T461 254T516 297Q459 251 394 215T258 160Q265 172 278 181T307 198T339 212T367 226L373 217Q388 228 417
245T475 282T527 323T549 364L543 366Q538 347 519 328T476 291T426 258Q401 243 383 234Q400 244 425 260Q452 277 477 296T521 335T540 369Q511 411 484 453T438 542Q445 544 451 548T464 552Q472 552 478 542T486 526L495 532Q494 537 493 542T492 554Q492 566
496 576T515 586Q533 586 558 560T607 498T647 428T664 374Q664 324 635 283T564 210T473 152T385 111Q378 108 368 102T347 91T326 81T309 76Q298 76 298 87Q359 116 419 147T536 215Q476 183 418 151T296 92L289 107L273 99ZM389 338Q329 291 282 242T183 136Q178
131 171 121T157 100T141 81T126 72L115 79Q137 102 156 127T195 176T235 225T280 271Q255 251 234 228T194 180T154 130T112 83L100 94Q96 89 90 84T77 79Q60 79 55 93T50 121Q79 145 103 173T151 232T198 291T248 348Q221 323 198 294L152 236Q129 207 105 180T50
131Q51 144 59 157T78 184T100 210T119 232L128 226Q152 266 183 300T248 366L244 374Q215 346 188 315Q162 286 137 257Q162 287 187 317Q213 349 242 379Q235 397 221 422T191 473T157 523T127 562L151 581L173 563L181 570Q177 578 175 587T172 605Q172 615
177 624T193 633Q212 633 232 616T273 570T311 508T345 442T372 381T389 338ZM272 400L268 384L273 389L278 404L272 400ZM251 369L256 373L253 379L248 377L251 369ZM258 351L260 345L263 358L261 363L258 351Z" />
<glyph unicode="&#xbc;" glyph-name="onequarter" horiz-adv-x="960" d="M233 -25Q276 -9 311 20T376 84T431 158T479 235Q456 201 431 162T375 87T310 23T233 -19L228 -3Q224 -5 217 -8T205 -11Q196 -11 187 -7T177 9Q177 19 182 27T193 43Q218 43 243 57T291
95T336 147T376 206T408 263Q421 287 429 305Q413 272 392 235Q369 194 341 156T277 90T201 52Q222 77 249 95T298 140L310 137Q355 207 398 277T467 429L461 430Q435 361 401 296Q370 235 329 180Q364 230 390 284Q419 342 442 402T489 522T541 643Q552 665 565
685T589 728Q597 727 606 723T616 708Q616 702 613 695T607 683L617 679Q625 692 638 702T668 713Q678 713 681 706T684 690Q684 666 673 633T647 565T617 496T592 437Q575 390 552 339T502 237T442 140T375 58Q366 49 351 33T317 2T280 -24T249 -36Q244 -36 239
-34T233 -25ZM834 141L833 137H844Q850 145 860 149T881 154Q898 154 904 144T910 119L909 39Q908 16 900 -5T892 -49V-52Q892 -63 896 -75Q889 -84 881 -85Q879 -76 878 -66T877 -46V-9Q877 -3 878 3Q875 -10 874 -27Q873 -46 873 -60V-68L874 -87L858 -91L860
-98Q844 -117 818 -117Q809 -117 807 -99T805 -64V-52L803 -66Q800 -89 800 -112Q789 -108 786 -100T782 -81V-76L783 -54L793 -51Q793 -49 793 -44T791 -34T789 -24T785 -19L772 -8Q761 -9 752 -9T733 -10Q703 -10 679 -4T637 17T611 56T601 117V135Q601 145 602
154L596 155Q594 144 593 134T592 113Q592 64 605 39T642 2T698 -12Q712 -13 726 -14Q713 -14 701 -14Q668 -13 643 -3T603 31T588 99Q588 153 602 201T639 299Q660 320 672 347Q675 344 679 343T689 340T697 336T701 328Q701 324 699 319T694 311L724 312Q727
315 733 320T744 326Q755 326 761 319T767 301Q767 280 759 257T740 209T722 156T713 100Q731 98 749 97T785 93Q785 113 795 130T811 148L834 141ZM105 715Q100 714 95 714T85 713Q74 713 65 717T50 733Q50 748 64 761T100 785T147 805T195 823T231 839T246 855L350
747Q346 708 339 668L326 588Q320 548 315 508T310 429Q310 424 310 418T311 405Q311 397 309 391T298 384L293 385Q295 453 301 520T319 653Q303 587 299 520T287 386L271 387V368Q267 361 261 356T247 351Q237 351 229 358T216 373Q225 411 229 451T236 533T240
616T246 696Q235 618 230 540T209 383Q199 400 199 416Q199 442 202 466T207 516L218 520Q217 526 217 532V546Q217 587 223 627T234 708L225 704Q221 660 217 617Q213 581 209 545Q212 580 214 616Q217 659 221 702Q191 688 159 682T98 661Q96 669 92 674T85 687Q88
694 95 698T110 705L105 715ZM621 61Q627 37 643 25T681 9T726 3Q749 2 769 1Q750 3 728 5Q705 7 684 12T646 28T621 61ZM775 73Q755 75 734 78T693 83Q696 80 704 78T722 74T741 73T754 72H764Q770 72 775 73ZM769 -16Q748 -15 728 -14Q748 -15 769 -16ZM806 -41Q808
-34 808 -23Q807 -33 806 -43V-41ZM209 541Q209 543 209 545Q209 543 209 541ZM208 537Q209 539 209 540Q209 539 208 537ZM323 172L329 180L323 172ZM208 530Q208 532 208 534Q208 532 208 530Z" />
<glyph unicode="&#xbd;" glyph-name="onehalf" horiz-adv-x="964" d="M708 660Q708 599 680 539T609 422T520 314T436 220Q427 210 412 187T377 135T338 73T300 15T269 -30T251 -50L242 -45Q285 21 324 91T414 222L424 234Q406 218 381 182T330 105T280 23T238
-41L225 -32Q222 -42 212 -51T190 -61Q175 -61 172 -48T169 -22V-18Q198 13 227 56T285 145T342 237T396 320Q366 281 339 240T284 156T229 73T169 -5Q170 11 179 31T201 72T227 111T248 146L258 140Q271 171 296 206T351 277T412 352T466 430Q466 429 464 429Q461
429 461 432Q412 372 366 312T276 189Q292 219 309 245T346 297Q362 319 387 349T440 413T497 484T549 556T586 624T601 682Q605 680 610 680Q614 680 618 681L626 683Q635 678 635 667Q635 655 632 645L642 643Q645 648 649 658T659 679T671 697T685 705Q692 705
696 700T703 687T707 672T708 660ZM553 40Q574 54 606 80T670 138T726 201T755 257Q745 259 733 261T712 264Q703 264 692 259T670 247T649 233T631 221Q631 229 625 233T618 246Q618 254 631 262T650 273L644 282Q635 279 626 277T608 275Q597 275 589 279T578
294L579 303Q583 320 599 334T637 358T679 373T716 379Q743 379 772 372T825 351T864 313T879 258Q879 223 867 195T834 142T788 99T734 62Q738 62 750 63T777 66T805 69T827 70Q842 70 855 67T874 55Q856 52 838 50T802 48L871 45Q869 39 869 38Q869 31 876 29T891
24T907 19T914 6Q914 -6 905 -13T887 -27Q865 -22 843 -22T798 -21Q765 -21 731 -22Q701 -23 671 -24Q688 -24 704 -24H744Q777 -24 810 -26T876 -33Q865 -38 855 -41T833 -45H719L710 -34Q665 -40 619 -40H567Q565 -20 562 0T553 40ZM105 694Q100 693 95 693T84
692Q73 692 64 696T50 712Q50 727 63 738T96 757T141 772T189 785T230 796T257 810L356 769Q351 724 344 681T330 594T317 508T312 419Q312 415 312 409T313 397Q313 388 311 381T300 374L295 375Q297 443 302 504T319 632Q303 567 300 505T289 376L273 377V358Q269
351 263 346T249 341Q239 341 231 348T218 363Q227 403 231 443T238 523T241 603T246 684Q235 606 231 529T211 373Q201 390 201 406Q201 432 204 456T209 506L220 510Q219 518 218 521T216 532Q216 571 222 615T234 696L225 692Q221 648 218 606Q215 566 210 524Q214
565 215 605Q217 647 221 690Q191 676 159 665T98 640L85 666Q89 673 95 677T110 684L105 694ZM567 -44L651 -46L568 -48L567 -44ZM620 59Q612 53 606 49T593 35Q601 38 608 43T621 55L620 59ZM662 95Q646 82 632 68Q636 68 644 75T662 92T680 110Q681 111 682
112Q672 103 662 95ZM608 -21L647 -25L646 -22L608 -21Z" />
<glyph unicode="&#xbe;" glyph-name="threequarters" horiz-adv-x="890" d="M309 40Q303 33 298 33Q295 33 291 35Q310 110 348 170T440 286Q386 236 347 172T286 38Q278 42 272 42Q268 31 263 23Q258 16 253 11T242 5Q232 5 225 15T213 36L217 47Q245 135 293
212Q338 282 396 353Q342 290 295 220Q243 142 209 49Q206 59 206 72Q206 87 211 103T223 136T240 169T258 199L274 206Q292 245 316 277T366 339T419 400T469 464L464 467Q440 437 415 408T364 348T314 284Q290 253 268 217Q298 272 336 320Q374 370 414 417T494
510T569 605Q587 631 604 648T636 690Q638 686 642 685T650 682T658 678T662 670Q662 665 660 659T649 642L658 637Q676 654 689 661T713 668Q719 667 723 663T728 651Q728 636 722 620T707 588T687 556T664 525Q618 465 573 407T477 299Q435 258 402 212T338 118Q333
110 329 98L322 74Q319 62 316 53T309 40ZM152 386Q111 394 76 410Q82 416 82 423Q62 434 56 439T50 454Q50 465 62 472T86 482Q122 464 158 457T234 450Q270 450 287 458T304 479Q304 496 296 505Q288 513 278 518Q293 510 297 499Q301 487 301 476Q301 475 296
471T282 463T259 455T230 451Q197 451 160 460T97 485Q106 488 118 488Q144 488 172 480T226 472Q229 472 232 472T239 473L240 462Q242 462 249 464T265 469T280 475T287 480Q287 503 269 519T228 540Q224 538 220 537T211 533Q238 531 259 515T281 481Q277 476
270 475T254 473Q273 476 278 481Q278 486 275 493T262 508T239 521T202 529H163Q162 548 162 559V588Q162 591 163 594Q181 594 200 608T220 659Q217 670 210 674T192 678Q177 678 161 673T142 667Q143 668 145 671Q149 675 149 682Q149 690 152 696T169 703L168
714Q144 714 135 708T121 695T111 679T93 668Q89 668 86 673T82 699Q82 726 94 742T124 766T160 778T191 781H200Q215 781 239 775T293 739L297 733Q306 724 315 702T325 655V650Q325 644 324 635T316 617T298 600T263 585Q306 580 332 568T372 540T390 509T395
483Q395 453 382 430T347 392T298 368T242 360Q219 360 190 363T134 371T89 383T70 398Q70 402 73 405Q93 398 112 394T152 386ZM764 101L763 97H774Q780 105 790 109T811 114Q828 114 834 104T840 79L839 -1Q838 -24 830 -45T822 -89V-92Q822 -103 826 -115Q819
-124 811 -125Q809 -116 808 -106T807 -86V-49Q807 -43 808 -37Q805 -50 804 -67Q803 -86 803 -100V-108L804 -127L788 -131L790 -138Q774 -157 748 -157Q739 -157 737 -139T735 -104V-92L733 -106Q730 -129 730 -152Q719 -148 716 -140T712 -121V-116L713 -94L723
-91Q723 -89 723 -84T721 -74T719 -64T715 -59L702 -48Q691 -49 682 -49T663 -50Q633 -50 609 -44T567 -23T541 16T531 77V95Q531 105 532 114L526 115Q524 104 523 94T522 73Q522 24 535 -1T572 -38T628 -52Q642 -53 656 -54Q643 -54 631 -54Q598 -53 573 -43T533
-9T518 59Q518 113 532 161T569 259Q590 280 602 307Q605 304 609 303T619 300T627 296T631 288Q631 284 629 279T624 271L654 272Q657 275 663 280T674 286Q685 286 691 279T697 261Q697 240 689 217T670 169T652 116T643 60Q661 58 679 57T715 53Q715 73 725
90T741 108L764 101ZM551 21Q557 -3 573 -14T611 -30T656 -35T701 -37Q681 -35 658 -34T614 -27T576 -11T551 21ZM705 33Q685 35 664 38T623 43Q626 40 634 38T652 34T671 33T684 32H694Q700 32 705 33ZM370 481V461Q370 441 361 428Q367 436 371 447T375 472L377
481Q377 490 374 500Q372 510 368 521Q371 510 371 502Q371 496 371 491T370 481ZM699 -56Q678 -55 658 -54Q678 -55 699 -56ZM189 381Q180 382 171 383Q166 383 161 384Q177 381 189 381ZM736 -81Q738 -74 738 -63Q737 -73 736 -83V-81ZM161 384L156 385L161 384Z"
/>
<glyph unicode="&#xbf;" glyph-name="questiondown" horiz-adv-x="510" d="M440 -103Q451 -103 455 -113T460 -132Q460 -153 440 -170T393 -198T338 -216T294 -222Q278 -222 263 -217T233 -208Q253 -216 270 -220T311 -225Q352 -225 387 -207T453 -164Q445 -184
429 -199T393 -225T351 -240T308 -245Q291 -245 276 -242T245 -235L248 -224Q221 -220 203 -213T168 -196T136 -176T99 -155Q85 -132 74 -108T63 -54Q63 -27 67 -6T80 32T104 65T141 98Q138 99 138 101L139 103Q113 87 97 69T71 32T58 -5T54 -40Q54 -84 67 -115T104
-168T160 -204Q192 -218 229 -229Q193 -221 161 -208Q128 -194 104 -172T65 -119T50 -46Q50 -7 60 20T86 65T121 96T158 117T189 133T208 151Q208 157 210 165T212 181Q212 197 200 206T173 215L175 227Q173 233 173 236Q173 249 188 249Q193 249 198 247T209 243L213
253Q207 257 196 262T175 272T157 285T148 301Q151 307 157 310T172 316T189 319T202 320Q229 320 253 309T295 278T324 234T335 183Q335 143 327 117T306 74T276 46T242 26T207 7T177 -21Q177 -23 177 -23L178 -25Q178 -30 176 -36T173 -47Q173 -65 179 -81Q190
-87 207 -96T244 -114T280 -129T310 -135Q322 -135 332 -130T350 -119T365 -108T378 -103L389 -110Q366 -133 346 -142T293 -152L309 -153H313Q337 -153 356 -141T392 -115L403 -127Q410 -119 419 -111T440 -103ZM160 465Q157 468 154 471T148 478Q168 517 210
517H220Q227 513 240 506T262 498Q264 498 268 500Q270 495 271 491T272 481Q253 481 234 494Q241 487 247 485T259 482T268 476T274 459H276Q279 451 282 443T285 425Q285 420 284 415T281 405Q264 419 241 419L231 418Q246 414 255 411T279 398Q277 390 273 386L257
391V402Q249 400 248 400Q242 400 238 402T227 405Q218 405 218 395Q229 395 237 395T256 391Q252 392 248 392H242Q231 392 221 391T198 389L196 388L191 399L195 400Q190 408 188 417T184 434L186 433Q184 440 180 452T166 464L160 465ZM102 -135Q114 -155 135
-168Q155 -180 175 -188Q155 -178 139 -163Q123 -148 102 -135ZM163 -91V-92Q163 -94 168 -100T176 -108Q167 -99 163 -91ZM257 -143L280 -149L254 -142L257 -143Z" />
<glyph unicode="&#xc0;" glyph-name="Agrave" horiz-adv-x="774" d="M556 163L550 166Q508 177 461 180T365 193Q413 183 459 178T550 157Q536 148 520 148Q501 150 483 154T443 160Q443 166 446 169Q417 169 389 175T333 188T281 202T233 209Q233 206 232 206Q258
201 281 192T333 178Q361 171 387 168T440 160Q398 164 355 172T269 190L222 202Q197 138 172 77T122 -48Q120 -44 116 -44T107 -43T98 -41T94 -30Q94 -22 98 -8T113 31Q111 33 107 33T100 34Q80 -8 62 -30T32 -53Q20 -53 20 -30Q20 -11 27 18T44 82T68 152T93
224Q82 231 70 234T42 239Q45 243 45 249T46 261T50 271T61 275Q63 275 73 273V282Q57 290 49 301T40 323Q40 347 86 347Q99 347 112 346T140 342L186 447Q201 481 218 517T260 588T314 654T385 711L400 717Q428 710 445 706T474 699Q484 695 490 694H489L490 691Q490
690 489 689L501 668Q566 559 611 442T688 212Q696 187 707 159T729 105T747 59T754 29Q754 22 751 21T743 19Q717 84 694 147Q671 209 649 272Q669 209 691 147Q714 84 737 19H730Q724 19 722 13Q724 11 727 3T733 -15T738 -35T740 -50Q740 -72 727 -72Q720 -72
716 -69T707 -61L697 -51Q691 -45 682 -39L586 237Q607 172 627 107T670 -21Q654 -2 641 25T616 82T594 143T574 203Q574 201 574 200T575 196Q575 180 565 172L556 163ZM550 267Q552 267 556 268T562 270Q529 353 497 431T425 581L419 575L434 548Q469 484 497
416T550 276Q521 354 488 431T416 572L412 570Q378 535 349 486T293 386L267 323L284 319Q299 315 313 311T339 301Q361 290 397 284T467 273T527 261T553 242L431 256Q442 254 458 252T490 246T523 241T550 236Q550 233 550 231T549 226Q549 224 551 224T557 223T564
220Q567 219 570 214L550 267ZM333 481Q335 481 335 479T335 476Q337 476 347 490T370 522T395 556T412 577L407 584Q386 564 368 537T333 481ZM434 589Q466 535 493 476Q519 418 542 360Q523 418 496 476Q468 535 435 589H434ZM587 439Q618 359 648 276Q620 357
589 436Q560 514 522 593Q558 517 587 439ZM440 611Q453 608 458 605T465 602L466 605Q467 605 462 606T454 608L456 612L444 616L440 611ZM391 621L399 600L398 621Q396 621 394 622T389 623L391 621ZM417 592L410 587L416 579L422 585L417 592ZM431 594H432L427
601V600L431 594ZM315 906Q317 915 323 915Q324 915 328 913L332 923Q326 931 323 941T320 959Q321 964 322 969T326 978Q329 979 335 982T346 985Q374 985 402 968T454 928T496 879T524 839Q527 833 535 832T543 825Q543 817 539 809Q517 820 503 836T474 876Q485
852 502 834T536 805Q534 801 533 798T530 789Q535 789 536 785T537 775Q537 762 531 752T516 736L512 739Q482 764 459 785T411 832Q428 809 452 784T509 732Q501 727 493 727Q488 727 482 731T469 740T456 752L446 762L453 770Q439 777 429 788T411 810T394 830T373
845Q373 843 369 841Q389 826 405 806Q421 787 441 766Q427 780 408 798Q387 818 367 836T332 867T310 882Q312 887 313 893T315 906ZM445 763Q443 764 441 766Q443 764 445 763Z" />
<glyph unicode="&#xc1;" glyph-name="Aacute" horiz-adv-x="774" d="M556 163L550 166Q508 177 461 180T365 193Q413 183 459 178T550 157Q536 148 520 148Q501 150 483 154T443 160Q443 166 446 169Q417 169 389 175T333 188T281 202T233 209Q233 206 232 206Q258
201 281 192T333 178Q361 171 387 168T440 160Q398 164 355 172T269 190L222 202Q197 138 172 77T122 -48Q120 -44 116 -44T107 -43T98 -41T94 -30Q94 -22 98 -8T113 31Q111 33 107 33T100 34Q80 -8 62 -30T32 -53Q20 -53 20 -30Q20 -11 27 18T44 82T68 152T93
224Q82 231 70 234T42 239Q45 243 45 249T46 261T50 271T61 275Q63 275 73 273V282Q57 290 49 301T40 323Q40 347 86 347Q99 347 112 346T140 342L186 447Q201 481 218 517T260 588T314 654T385 711L400 717Q428 710 445 706T474 699Q484 695 490 694H489L490 691Q490
690 489 689L501 668Q566 559 611 442T688 212Q696 187 707 159T729 105T747 59T754 29Q754 22 751 21T743 19Q717 84 694 147Q671 209 649 272Q669 209 691 147Q714 84 737 19H730Q724 19 722 13Q724 11 727 3T733 -15T738 -35T740 -50Q740 -72 727 -72Q720 -72
716 -69T707 -61L697 -51Q691 -45 682 -39L586 237Q607 172 627 107T670 -21Q654 -2 641 25T616 82T594 143T574 203Q574 201 574 200T575 196Q575 180 565 172L556 163ZM550 267Q552 267 556 268T562 270Q529 353 497 431T425 581L419 575L434 548Q469 484 497
416T550 276Q521 354 488 431T416 572L412 570Q378 535 349 486T293 386L267 323L284 319Q299 315 313 311T339 301Q361 290 397 284T467 273T527 261T553 242L431 256Q442 254 458 252T490 246T523 241T550 236Q550 233 550 231T549 226Q549 224 551 224T557 223T564
220Q567 219 570 214L550 267ZM333 481Q335 481 335 479T335 476Q337 476 347 490T370 522T395 556T412 577L407 584Q386 564 368 537T333 481ZM434 589Q466 535 493 476Q519 418 542 360Q523 418 496 476Q468 535 435 589H434ZM587 439Q618 359 648 276Q620 357
589 436Q560 514 522 593Q558 517 587 439ZM440 611Q453 608 458 605T465 602L466 605Q467 605 462 606T454 608L456 612L444 616L440 611ZM391 621L399 600L398 621Q396 621 394 622T389 623L391 621ZM417 592L410 587L416 579L422 585L417 592ZM431 594H432L427
601V600L431 594ZM309 735Q304 735 300 738T293 746Q337 780 389 796Q363 791 338 778T290 750Q288 754 286 757T280 763L274 758Q258 762 249 775T240 801L244 803Q270 814 302 833T363 869Q333 855 304 838T239 809Q239 826 250 833T278 848L290 842Q301 853
314 860T341 873T367 886T391 905Q389 905 389 909Q366 894 343 882Q321 870 297 857Q334 879 370 902Q407 925 455 950Q458 949 465 949Q478 949 489 955Q491 948 496 940T501 925Q501 918 492 917L497 907Q510 905 522 893T534 870Q534 856 525 848T498 834Q484
827 466 816T426 792T381 769T332 753Q326 751 320 743T309 735Z" />
<glyph unicode="&#xc2;" glyph-name="Acircumflex" horiz-adv-x="774" d="M556 163L550 166Q508 177 461 180T365 193Q413 183 459 178T550 157Q536 148 520 148Q501 150 483 154T443 160Q443 166 446 169Q417 169 389 175T333 188T281 202T233 209Q233 206 232
206Q258 201 281 192T333 178Q361 171 387 168T440 160Q398 164 355 172T269 190L222 202Q197 138 172 77T122 -48Q120 -44 116 -44T107 -43T98 -41T94 -30Q94 -22 98 -8T113 31Q111 33 107 33T100 34Q80 -8 62 -30T32 -53Q20 -53 20 -30Q20 -11 27 18T44 82T68
152T93 224Q82 231 70 234T42 239Q45 243 45 249T46 261T50 271T61 275Q63 275 73 273V282Q57 290 49 301T40 323Q40 347 86 347Q99 347 112 346T140 342L186 447Q201 481 218 517T260 588T314 654T385 711L400 717Q428 710 445 706T474 699Q484 695 490 694H489L490
691Q490 690 489 689L501 668Q566 559 611 442T688 212Q696 187 707 159T729 105T747 59T754 29Q754 22 751 21T743 19Q717 84 694 147Q671 209 649 272Q669 209 691 147Q714 84 737 19H730Q724 19 722 13Q724 11 727 3T733 -15T738 -35T740 -50Q740 -72 727 -72Q720
-72 716 -69T707 -61L697 -51Q691 -45 682 -39L586 237Q607 172 627 107T670 -21Q654 -2 641 25T616 82T594 143T574 203Q574 201 574 200T575 196Q575 180 565 172L556 163ZM550 267Q552 267 556 268T562 270Q529 353 497 431T425 581L419 575L434 548Q469 484
497 416T550 276Q521 354 488 431T416 572L412 570Q378 535 349 486T293 386L267 323L284 319Q299 315 313 311T339 301Q361 290 397 284T467 273T527 261T553 242L431 256Q442 254 458 252T490 246T523 241T550 236Q550 233 550 231T549 226Q549 224 551 224T557
223T564 220Q567 219 570 214L550 267ZM333 481Q335 481 335 479T335 476Q337 476 347 490T370 522T395 556T412 577L407 584Q386 564 368 537T333 481ZM434 589Q466 535 493 476Q519 418 542 360Q523 418 496 476Q468 535 435 589H434ZM587 439Q618 359 648 276Q620
357 589 436Q560 514 522 593Q558 517 587 439ZM440 611Q453 608 458 605T465 602L466 605Q467 605 462 606T454 608L456 612L444 616L440 611ZM391 621L399 600L398 621Q396 621 394 622T389 623L391 621ZM417 592L410 587L416 579L422 585L417 592ZM431 594H432L427
601V600L431 594ZM542 809Q519 829 503 852T479 904Q484 875 501 850T538 805L532 799Q529 796 527 792Q528 791 530 790Q532 789 532 789T535 787Q535 767 525 759T500 745L496 749Q475 776 464 813T437 882L434 879Q441 865 447 847T461 810T475 774T491 743Q488
742 483 742Q476 742 472 748T464 763T457 781T448 798L450 813Q446 816 443 823T436 838T430 853T424 866Q423 865 423 864T420 862Q423 857 425 850T430 835T435 820T440 808Q437 812 435 819Q432 826 429 833L424 848Q422 856 419 860Q401 833 386 818T365 796Q360
802 351 807T341 819Q341 824 348 830L339 837Q334 835 330 834T322 833Q307 833 296 841T284 862Q284 873 295 889T321 919T349 945T365 959L442 1025Q460 996 472 979T491 952T503 935T510 923Q514 912 521 897T534 867T544 840T549 824Q549 816 542 809Z" />
<glyph unicode="&#xc3;" glyph-name="Atilde" horiz-adv-x="774" d="M556 163L550 166Q508 177 461 180T365 193Q413 183 459 178T550 157Q536 148 520 148Q501 150 483 154T443 160Q443 166 446 169Q417 169 389 175T333 188T281 202T233 209Q233 206 232 206Q258
201 281 192T333 178Q361 171 387 168T440 160Q398 164 355 172T269 190L222 202Q197 138 172 77T122 -48Q120 -44 116 -44T107 -43T98 -41T94 -30Q94 -22 98 -8T113 31Q111 33 107 33T100 34Q80 -8 62 -30T32 -53Q20 -53 20 -30Q20 -11 27 18T44 82T68 152T93
224Q82 231 70 234T42 239Q45 243 45 249T46 261T50 271T61 275Q63 275 73 273V282Q57 290 49 301T40 323Q40 347 86 347Q99 347 112 346T140 342L186 447Q201 481 218 517T260 588T314 654T385 711L400 717Q428 710 445 706T474 699Q484 695 490 694H489L490 691Q490
690 489 689L501 668Q566 559 611 442T688 212Q696 187 707 159T729 105T747 59T754 29Q754 22 751 21T743 19Q717 84 694 147Q671 209 649 272Q669 209 691 147Q714 84 737 19H730Q724 19 722 13Q724 11 727 3T733 -15T738 -35T740 -50Q740 -72 727 -72Q720 -72
716 -69T707 -61L697 -51Q691 -45 682 -39L586 237Q607 172 627 107T670 -21Q654 -2 641 25T616 82T594 143T574 203Q574 201 574 200T575 196Q575 180 565 172L556 163ZM550 267Q552 267 556 268T562 270Q529 353 497 431T425 581L419 575L434 548Q469 484 497
416T550 276Q521 354 488 431T416 572L412 570Q378 535 349 486T293 386L267 323L284 319Q299 315 313 311T339 301Q361 290 397 284T467 273T527 261T553 242L431 256Q442 254 458 252T490 246T523 241T550 236Q550 233 550 231T549 226Q549 224 551 224T557 223T564
220Q567 219 570 214L550 267ZM333 481Q335 481 335 479T335 476Q337 476 347 490T370 522T395 556T412 577L407 584Q386 564 368 537T333 481ZM434 589Q466 535 493 476Q519 418 542 360Q523 418 496 476Q468 535 435 589H434ZM587 439Q618 359 648 276Q620 357
589 436Q560 514 522 593Q558 517 587 439ZM440 611Q453 608 458 605T465 602L466 605Q467 605 462 606T454 608L456 612L444 616L440 611ZM391 621L399 600L398 621Q396 621 394 622T389 623L391 621ZM417 592L410 587L416 579L422 585L417 592ZM431 594H432L427
601V600L431 594ZM590 956Q597 940 597 927Q597 903 585 877T559 827L547 826Q543 817 535 807T515 787T484 772T442 766Q408 766 387 775T354 797L349 805Q336 818 334 835T331 864V886Q331 897 330 902Q325 894 323 886T321 855Q321 845 324 832T340 801L347
793Q364 773 388 767T443 760Q454 760 465 762T483 765Q475 762 466 761T446 758Q424 758 408 760T380 767T359 778T341 794L336 800Q323 813 320 831T317 861Q317 871 317 878T318 893Q306 885 296 877T277 856L254 878Q254 887 267 899L259 906Q250 901 242 898T225
894Q212 894 205 902T197 919L203 937Q209 955 225 976T269 1016T341 1034Q375 1034 396 1018T428 982T442 941T446 912Q446 897 445 883T442 861Q442 857 447 857Q460 857 468 873T481 908T491 944T500 961L507 960Q504 941 497 920T481 880T461 849T443 836L434
845Q435 842 438 839T443 835Q452 835 462 846T482 876T500 916T512 959L523 956Q524 956 526 961T533 972T542 983T554 988Q563 988 570 981T584 966Q576 941 572 922T558 877Q555 872 548 857T527 826T492 797T439 784Q414 784 397 787T367 803L361 810Q372 789
396 785T444 781Q471 781 493 794T531 829T559 874T578 919L590 956ZM509 775Q521 785 531 792Q541 799 547 807Q534 790 509 775Z" />
<glyph unicode="&#xc4;" glyph-name="Adieresis" horiz-adv-x="774" d="M556 163L550 166Q508 177 461 180T365 193Q413 183 459 178T550 157Q536 148 520 148Q501 150 483 154T443 160Q443 166 446 169Q417 169 389 175T333 188T281 202T233 209Q233 206 232
206Q258 201 281 192T333 178Q361 171 387 168T440 160Q398 164 355 172T269 190L222 202Q197 138 172 77T122 -48Q120 -44 116 -44T107 -43T98 -41T94 -30Q94 -22 98 -8T113 31Q111 33 107 33T100 34Q80 -8 62 -30T32 -53Q20 -53 20 -30Q20 -11 27 18T44 82T68
152T93 224Q82 231 70 234T42 239Q45 243 45 249T46 261T50 271T61 275Q63 275 73 273V282Q57 290 49 301T40 323Q40 347 86 347Q99 347 112 346T140 342L186 447Q201 481 218 517T260 588T314 654T385 711L400 717Q428 710 445 706T474 699Q484 695 490 694H489L490
691Q490 690 489 689L501 668Q566 559 611 442T688 212Q696 187 707 159T729 105T747 59T754 29Q754 22 751 21T743 19Q717 84 694 147Q671 209 649 272Q669 209 691 147Q714 84 737 19H730Q724 19 722 13Q724 11 727 3T733 -15T738 -35T740 -50Q740 -72 727 -72Q720
-72 716 -69T707 -61L697 -51Q691 -45 682 -39L586 237Q607 172 627 107T670 -21Q654 -2 641 25T616 82T594 143T574 203Q574 201 574 200T575 196Q575 180 565 172L556 163ZM550 267Q552 267 556 268T562 270Q529 353 497 431T425 581L419 575L434 548Q469 484
497 416T550 276Q521 354 488 431T416 572L412 570Q378 535 349 486T293 386L267 323L284 319Q299 315 313 311T339 301Q361 290 397 284T467 273T527 261T553 242L431 256Q442 254 458 252T490 246T523 241T550 236Q550 233 550 231T549 226Q549 224 551 224T557
223T564 220Q567 219 570 214L550 267ZM333 481Q335 481 335 479T335 476Q337 476 347 490T370 522T395 556T412 577L407 584Q386 564 368 537T333 481ZM434 589Q466 535 493 476Q519 418 542 360Q523 418 496 476Q468 535 435 589H434ZM587 439Q618 359 648 276Q620
357 589 436Q560 514 522 593Q558 517 587 439ZM440 611Q453 608 458 605T465 602L466 605Q467 605 462 606T454 608L456 612L444 616L440 611ZM391 621L399 600L398 621Q396 621 394 622T389 623L391 621ZM417 592L410 587L416 579L422 585L417 592ZM431 594H432L427
601V600L431 594ZM604 815Q606 810 607 804T608 791Q608 782 607 775T603 760L600 762Q595 765 586 767T568 772T551 775T540 776Q535 776 531 776T522 775Q542 771 561 770T600 754V751Q600 748 601 746T602 743L601 742Q595 744 586 745T570 748L566 758Q558
756 554 756Q544 756 534 759T514 763Q509 763 503 761T497 753Q502 754 506 754H516Q526 754 535 752Q541 751 547 750H541H529Q511 750 499 749T467 748H461Q456 754 453 755T447 757T443 762T442 778Q442 784 442 789T447 794L450 793V804Q444 810 441 821T438
843Q438 860 445 865T463 871Q468 871 473 871T483 870Q491 870 495 872T508 875Q511 875 520 872T540 865T562 858T580 855Q583 855 586 856T591 857Q598 857 599 851T600 837H589H582Q589 835 593 831Q599 826 599 815H604ZM347 824Q348 820 348 813Q348 804
347 796T343 779L341 770L340 772Q337 776 326 781T307 786Q305 786 301 786T291 785T282 785T276 784Q282 783 291 783T310 780T328 774T339 763Q335 752 334 752L329 755Q328 756 325 757L322 769Q320 767 315 767Q313 767 307 767T295 769T283 770T274 771Q267
771 263 766Q264 764 264 760Q271 763 280 763Q283 763 288 763T301 762T313 760T322 758Q314 760 309 760Q303 760 294 759T275 756L256 753Q247 752 241 751H237Q234 756 231 758T224 765T220 774T218 791Q218 795 222 795L221 806Q214 813 210 828T205 855Q205
862 211 867T226 875T244 880T258 882Q260 882 269 880T291 874T314 868T332 865Q334 865 337 865T342 866Q347 866 347 855Q347 853 347 851T346 846Q333 849 311 851T275 860Q282 856 291 854T311 850T330 846T345 841Q345 837 345 833T344 825L347 824ZM531
851Q539 846 547 844L551 843Q549 844 547 844Q540 847 531 851ZM554 749Q551 749 548 750Q551 749 554 749Z" />
</font>
</defs>
</svg>
