<?xml version="1.0" standalone="no"?>
<!DOCTYPE svg PUBLIC "-//W3C//DTD SVG 1.1//EN" "http://www.w3.org/Graphics/SVG/1.1/DTD/svg11.dtd">
<svg xmlns="http://www.w3.org/2000/svg">
<defs >
<font id="GloriaHallelujah" horiz-adv-x="516" ><font-face
    font-family="Gloria Hallelujah"
    units-per-em="1024"
    panose-1="2 0 0 0 0 0 0 0 0 0"
    ascent="1439"
    descent="-591"
    alphabetic="0" />
<glyph unicode=" " glyph-name="space" horiz-adv-x="461" />
<glyph unicode="!" glyph-name="exclam" horiz-adv-x="150" d="M97 87Q110 87 122 79T138 60T132 34T89 8Q62 12 51 21T38 41T42 62T58 80T79 90T97 87ZM22 751Q49 776 64 762T86 709T95 616T96 504T98 396T107 315Q107 300 105 289T98 271T82 261T53 257Q50 257
47 260T41 277T35 322T30 408T25 546T22 751Z" />
<glyph unicode="&quot;" glyph-name="quotedbl" horiz-adv-x="364" d="M20 729Q20 736 20 754T21 793T21 832T22 858Q23 860 31 868T42 879Q44 879 47 880Q49 880 50 880T53 881Q54 881 56 881T59 880Q62 879 65 879Q66 878 69 876T75 870T82 863T85 858Q81 809
91 766T116 685T142 612T154 546Q154 535 151 522T141 497T123 478T95 470Q72 470 57 486T33 527T22 584T19 643T19 695T20 729ZM193 796Q193 807 197 818T207 839T224 853T246 859Q259 859 270 837T290 782T304 709T314 636T321 579T323 555Q323 512 276 512Q259
512 246 530T224 577T208 640T199 706T194 762T193 796Z" />
<glyph unicode="#" glyph-name="numbersign" horiz-adv-x="703" d="M211 245Q211 255 207 285T191 367Q128 348 91 351T38 370T30 405T61 438T127 453T225 435Q229 440 231 456T237 493T243 537T249 579T254 611T259 625Q265 629 278 631T303 634Q319 636 336
636L349 472H424Q424 474 425 489T428 525T435 572T447 617T463 652T487 666Q491 666 499 666T514 663T526 657T532 643V493Q543 489 561 485T602 478T648 470T690 461T721 450T733 435Q726 414 705 405T657 390T604 380T561 366T542 340T562 292Q573 292 590 294T625
298T661 300T693 296T716 282T725 254Q725 238 706 228T660 211T610 200T574 193Q577 175 581 150T584 100T571 58T532 40Q511 47 502 61T487 93T477 127T463 155T433 167T377 157Q377 139 377 116T373 71T355 35T317 20Q308 20 297 35T273 71T247 114T222 148Q162
154 130 161T85 177T78 193T96 210Q129 227 211 245ZM338 301Q338 292 343 287T355 280T369 277T382 276Q390 276 401 277T422 282T440 291T448 309Q448 331 438 349T405 367Q393 367 381 362T360 347T344 325T338 301Z" />
<glyph unicode="$" glyph-name="dollar" horiz-adv-x="621" d="M60 18Q42 22 39 36T36 64Q25 78 33 88T59 103T104 111T154 113T198 108T225 98Q235 162 235 205T227 278T205 326T174 357T139 380T105 404T75 438T55 490Q55 517 67 537T97 573T137 599T177 620T208
639T220 661V833Q220 841 229 845T251 854T274 859T289 860Q289 811 293 760T317 661Q326 661 350 658T402 652T454 645T489 641Q491 640 497 637T510 630T523 623T531 618Q537 600 539 584T524 559T464 556T338 587Q327 587 322 574T315 545T313 516T314 501Q314
498 314 490T315 474T316 459T317 447Q328 445 354 442T414 431T483 413T549 387T599 350T618 300Q618 245 593 203T530 127T446 67T359 18V-14Q359 -36 362 -57T371 -100T379 -143T383 -187Q383 -213 374 -226T337 -240Q325 -240 319 -239T309 -233T303 -219T295
-195Q292 -185 286 -161T272 -110T260 -58T253 -24L60 18ZM312 345Q312 288 318 235T338 126H348Q372 126 400 138T453 171T494 216T511 265Q511 300 490 316T438 339T372 346T312 345ZM143 492Q143 462 161 451T209 440V537Q198 537 187 535T166 528T150 514T143
492Z" />
<glyph unicode="%" glyph-name="percent" horiz-adv-x="771" d="M247 86Q256 110 267 165T292 290T325 437T365 580T413 693T471 752Q516 752 516 706Q514 688 507 648T488 555T461 443T429 321T394 202T358 99T323 24T292 -11T266 5T247 86ZM448 183Q448 218
468 241T517 278T578 297T636 302Q688 302 709 281T731 208Q731 131 688 86T566 40Q544 40 523 54T485 89T458 136T448 183ZM647 221Q611 227 587 227T553 218T547 190T572 138Q603 121 620 121T646 134T654 170T647 221ZM20 512Q20 544 27 578T50 641T94 688T160
706Q180 706 198 697T229 671T251 636T259 598Q259 571 241 544T197 496T141 461T85 448Q58 448 39 466T20 512ZM178 628Q142 634 118 634T84 625T78 597T103 544Q134 527 151 527T177 541T185 577T178 628Z" />
<glyph unicode="&amp;" glyph-name="ampersand" horiz-adv-x="751" d="M129 160Q129 184 132 206T140 251T148 296T152 343Q152 346 152 351T151 364T151 377T150 386Q129 402 103 423T54 471T16 526T0 589Q0 637 30 678T105 751T200 800T290 818Q349 818 369
791T390 706Q390 666 376 629T344 556T313 484T298 408Q298 383 317 364T363 330T417 309T461 301H472Q472 304 480 328T502 380T536 429T579 450Q586 440 590 433T597 419T601 405T602 386Q602 371 598 357T590 328T581 299T577 268Q577 266 577 262T578 252T578
242T579 236Q607 227 632 220T675 201T703 172T714 122Q695 103 673 104T624 116T566 143T501 171Q482 171 463 159T422 127T377 86T330 44T279 13T225 0Q193 0 175 16T146 56T132 109T129 160ZM212 158Q212 150 213 141T217 124T227 112T246 107Q267 107 290 118T336
145T377 180T408 215Q407 216 404 219T398 225T391 232T386 236Q379 240 363 250T330 270T298 289T278 301Q275 301 274 301Q272 301 271 301T268 302Q247 302 236 286T220 246T213 198T212 158ZM84 577Q84 574 84 571T85 565Q85 562 85 558L193 450Q226 471 249
504T286 577T308 657T315 735Q281 735 241 725T166 696T107 647T84 577Z" />
<glyph unicode="&apos;" glyph-name="quotesingle" horiz-adv-x="150" d="M22 664Q22 667 24 673T29 686T36 699T42 707Q44 707 47 708Q49 708 50 708T53 709Q72 709 86 696T111 664T125 625T130 589Q130 579 127 562T118 529T101 503T75 491Q58 491 49 513T33
565T24 623T22 664Z" />
<glyph unicode="(" glyph-name="parenleft" horiz-adv-x="343" d="M20 402Q20 420 24 451T36 518T58 593T90 661T131 711T183 731Q184 731 185 731T188 730Q190 729 193 729Q196 728 203 725T217 719T229 712T236 706Q236 705 237 703Q237 701 237 700T238 697Q238
662 217 628T172 558T126 482T105 396Q105 334 122 287T167 199T235 121T321 43Q321 41 322 38T323 32Q323 13 309 6T278 -2Q233 -2 197 18T132 72T82 147T47 235T27 323T20 402Z" />
<glyph unicode=")" glyph-name="parenright" horiz-adv-x="364" d="M126 43Q126 84 143 120T181 192T220 268T238 354Q238 395 226 427T195 484T150 530T99 571T47 614T0 664Q3 674 8 679T22 686T38 688T53 688Q117 688 167 655T251 571T304 459T323 343Q323 321
319 288T307 216T285 139T254 69T213 18T160 -2Q142 -2 134 12T126 43Z" />
<glyph unicode="*" glyph-name="asterisk" horiz-adv-x="535" d="M174 292Q174 293 172 297Q171 299 171 301Q168 303 163 306T150 313T137 319T129 321Q126 321 117 318T96 312T76 305T65 301Q63 301 54 300T40 298Q26 298 13 305T0 332Q0 360 15 378T53 406T102
421T150 428Q146 436 137 454T117 493T97 532T85 558Q85 560 85 567T84 579Q84 583 84 590T87 604T93 616T107 621Q110 621 115 619T128 613T142 606T150 600Q156 594 168 576T194 538T219 499T236 472Q255 495 273 515T313 550T358 574T414 583Q414 558 403 540T378
506T353 472T341 428Q341 425 342 417T343 408Q359 407 384 407T435 402T477 383T495 343Q495 319 485 310T458 300T423 302T387 305T358 301T343 278Q345 274 350 261T363 229T379 189T394 146T405 110T408 85Q408 84 403 78T391 65T376 52T364 43Q361 42 359
41Q356 40 354 40Q330 40 316 60T293 109T275 167T257 215Q236 181 227 146T206 82T171 35T99 17Q99 52 106 85T125 150T149 214T171 278Q171 281 172 283Q174 289 174 292Z" />
<glyph unicode="+" glyph-name="plus" horiz-adv-x="514" d="M22 278Q18 278 10 287T0 301Q-1 302 -1 305Q-2 307 -2 310Q-2 314 -1 317Q-1 319 0 321Q4 327 12 335T22 343H236Q242 395 252 450T278 558H290H301Q305 556 312 553T326 546T338 540T343 535V335Q360
335 386 340T436 346T478 338T495 298Q495 281 484 272T455 259T419 253T383 248T354 237T343 215Q343 191 353 170T376 129T399 88T409 43Q409 -2 364 -2Q343 -2 326 10T296 44T272 91T254 143T242 194T236 236L22 278Z" />
<glyph unicode="," glyph-name="comma" horiz-adv-x="232" d="M157 152Q168 152 175 147T186 135T190 118T191 99Q191 78 187 50T173 -10T151 -71T119 -125T79 -163T29 -178Q29 -157 33 -124T46 -54T67 19T93 85T123 133T157 152Z" />
<glyph unicode="-" glyph-name="hyphen" horiz-adv-x="514" d="M76 325Q76 328 77 336T78 346Q94 346 121 348T182 353T250 359T318 363T377 364T419 361Q437 361 444 357T452 330Q422 310 377 301T285 287T194 283T121 282Q94 280 85 293T76 325Z" />
<glyph unicode="." glyph-name="period" horiz-adv-x="227" d="M139 81Q184 81 184 34Q173 5 156 -4T125 -12T99 3T86 30T97 59T139 81Z" />
<glyph unicode="/" glyph-name="slash" horiz-adv-x="400" d="M41 79Q43 86 47 104T56 142T65 180T71 205Q78 233 92 282T126 388T173 502T232 603T303 670T385 681Q371 625 350 576T304 479T254 385T204 290T161 190T130 79Q125 50 111 46T79 46Q66 49 55 55T41 79Z" />
<glyph unicode="0" glyph-name="zero" horiz-adv-x="600" d="M20 377Q20 418 27 464T49 554T87 638T141 708T211 756T300 774Q368 774 420 752T508 690T562 595T580 473Q580 427 571 373T543 267T494 166T427 81T341 22T236 0Q186 0 151 18T91 66T53 135T32 216T22
300T20 377ZM105 332Q105 292 109 249T129 169T175 109T257 85Q300 85 334 105T394 159T439 233T471 318T489 401T495 472Q495 517 488 557T463 626T413 671T328 688Q284 688 251 671T192 626T151 562T124 485T110 406T105 332Z" />
<glyph unicode="1" glyph-name="one" horiz-adv-x="236" d="M20 643Q20 656 20 681T25 732T41 777T75 796Q88 796 96 774T110 718T118 644T122 567T125 505T128 472Q131 456 139 424T158 352T180 267T202 183T222 111T236 65Q236 63 237 59T238 53Q238 42 231
36T213 26T191 21T171 20Q167 20 160 21T150 22Q129 92 106 169T63 327T32 487T20 643Z" />
<glyph unicode="2" glyph-name="two" horiz-adv-x="664" d="M212 97Q212 152 222 205T246 313T269 422T280 535Q280 543 280 561T279 600T279 638T278 664Q276 668 268 676T257 686H246Q213 686 191 672T154 636T125 590T97 543T62 508T13 493Q13 546 31 596T82
686T162 750T265 774Q289 774 304 772T330 763T348 743T364 706Q364 698 364 678T364 633T365 588T366 558Q366 505 360 454T346 353T331 253T325 150H343L579 257Q580 257 583 257T592 258T601 258T608 259Q617 259 627 258T645 254T660 244T666 225Q666 204 653
192T623 173T587 161T556 150Q547 145 528 135T482 113T428 86T375 59T330 36T300 22Q298 22 294 22T284 21T274 21T267 20Q247 20 236 24T219 38T213 62T212 97Z" />
<glyph unicode="3" glyph-name="three" horiz-adv-x="579" d="M298 43Q298 46 299 54T301 65Q326 82 356 109T412 169T455 238T473 310Q473 312 473 314T472 318Q472 319 472 321Q468 325 459 334T440 354T421 373T408 386Q406 386 403 387Q401 387 400 387T396
388Q377 388 352 373T303 338T261 301T236 278Q234 277 231 277Q229 276 225 276Q221 276 220 277Q217 277 215 278Q211 280 203 288T193 301V310V321Q201 346 215 384T243 463T267 546T278 621Q278 645 276 668T266 711T243 741T202 752Q167 752 141 733T96 684T69
621T65 558H22Q21 558 18 568T12 591T5 619T0 643V664Q0 699 20 730T70 786T134 824T199 838Q245 838 275 822T325 779T354 717T367 644T368 567T364 493Q405 486 440 473T502 439T544 386T560 309Q560 284 551 252T526 186T488 118T441 59T388 16T332 0Q313 0
306 13T298 43Z" />
<glyph unicode="4" glyph-name="four" horiz-adv-x="621" d="M-6 268Q-6 307 8 361T47 473T107 589T181 693T265 767T354 796Q364 796 380 796T413 792T441 782T453 761Q453 760 451 755Q450 752 450 751Q448 747 443 741T431 727T417 714T408 706Q408 699 408
681T407 643T407 605T406 579Q406 547 406 518T407 459T413 402T428 343Q431 343 437 343T450 342T463 342T472 341Q485 341 498 341T522 346T543 359T558 386Q589 373 595 356T602 313Q602 283 589 268T555 245T506 238T450 236Q454 226 460 202T473 150T485 98T493
65Q493 63 494 54T495 40Q495 13 480 6T439 -2Q436 -2 424 -1T408 0Q406 12 400 39T388 97T374 155T364 193Q361 201 355 214T341 239T322 259T301 268H-6ZM301 664Q269 642 235 607T171 531T122 447T103 364H323Q323 395 320 440T314 530T306 612T301 664Z" />
<glyph unicode="5" glyph-name="five" horiz-adv-x="493" d="M367 313Q367 325 364 338T354 362T337 380T310 388Q310 388 309 388T305 387Q302 386 301 386Q296 383 283 377T252 362T214 343T177 325T146 309T129 301Q127 300 124 299Q121 298 118 298Q95 298
79 319T52 374T35 448T26 527T21 596T20 643Q20 650 20 665T21 697T21 730T22 751Q46 752 92 759T191 773T294 787T375 793Q400 793 416 784T433 751Q433 727 423 720T386 706Q376 705 354 701T305 693T247 684T190 675T140 668T107 664Q107 661 107 656T106 643T106
630T105 621Q105 613 106 596T111 557T118 512T129 470T142 439T158 427Q178 427 195 434T230 450T267 466T309 473Q351 473 379 463T423 431T446 378T453 304Q453 257 437 205T392 108T319 34T221 4Q221 36 232 62T259 111T294 156T329 201T356 252T367 313Z"
/>
<glyph unicode="6" glyph-name="six" horiz-adv-x="472" d="M22 85Q22 91 22 105T21 134T21 162T20 183Q20 202 21 250T27 360T41 486T67 606T105 696T160 731Q161 731 163 731T166 730Q169 729 171 729Q175 727 183 719T193 706V697V686Q191 679 186 658T175
608T161 547T146 486T135 436T128 408Q127 405 128 400T129 388T131 377T132 369Q153 369 173 375T214 389T256 403T300 409Q367 409 398 371T430 268Q430 217 407 168T345 81T257 19T157 -5Q132 -5 113 -2T79 10T49 37T22 85ZM126 193Q126 182 128 164T136 128T153
97T182 84Q206 84 234 102T287 146T328 203T345 257Q345 276 338 285T321 298T296 302T265 302Q238 302 214 296T169 276T138 241T126 193Z" />
<glyph unicode="7" glyph-name="seven" horiz-adv-x="600" d="M450 546V558Q445 561 433 564T407 570T381 576T364 579Q351 579 325 579T264 581T193 583T122 585T61 586T22 587V643Q22 650 39 654T83 660T141 664T200 665T246 666T268 666Q283 666 310 667T369
667T435 662T497 648T542 622T560 579Q560 514 551 468T528 384T500 312T475 240T463 155T472 43Q459 17 444 8T408 -2Q403 -2 396 -1T386 0Q385 5 384 18T382 57T385 122T395 219T416 355T450 535V546Z" />
<glyph unicode="8" glyph-name="eight" horiz-adv-x="579" d="M105 163Q105 166 105 170T106 179T106 188T107 193Q109 197 118 216T138 257T158 298T171 321V332V343Q162 350 146 364T111 397T72 437T37 481T11 526T0 568Q0 619 28 653T100 707T199 737T308 750T409
753T485 752Q520 752 540 733T560 678Q560 651 547 619T513 554T468 489T419 429T374 378T343 343Q360 317 376 292T404 240T423 187T430 129Q430 61 389 30T281 -2Q247 -2 216 10T160 45T120 98T105 163ZM212 160Q212 129 233 107T290 85Q312 85 328 94T345 126Q345
148 337 166T316 200T288 231T257 257Q233 241 223 215T212 160ZM105 579Q105 554 120 527T157 478T206 442T257 427Q261 427 268 427T278 428Q285 434 304 450T345 488T384 534T408 579Q391 604 377 617T347 637T314 644T274 645Q256 645 227 645T171 640T125
620T105 579Z" />
<glyph unicode="9" glyph-name="nine" horiz-adv-x="493" d="M367 439Q367 443 367 453T365 476T364 499T364 514Q337 484 317 467T278 441T237 430T186 427Q157 427 135 431T94 446T58 473T22 514Q22 519 22 533T21 563T21 592T20 611Q20 661 32 706T71 785T139
839T238 859Q292 859 331 838T395 782T436 702T459 609T469 513T472 427V408Q470 395 465 368T454 308T440 237T427 165T415 104T408 65Q392 36 368 24T313 11Q313 66 321 119T340 226T358 332T367 439ZM105 621Q105 601 107 582T117 548T140 524T183 514Q208 514
236 535T289 586T329 647T345 697Q345 711 333 725T303 749T268 767T238 774Q200 774 174 763T133 731T112 683T105 621Z" />
<glyph unicode=":" glyph-name="colon" horiz-adv-x="278" d="M84 53Q84 85 103 102T150 127T208 135T262 136Q262 108 254 83T231 40T192 10T139 -2Q108 -2 96 10T84 53ZM-2 375Q-2 391 10 405T39 429T75 446T107 453Q136 453 144 436T152 392Q152 373 144 360T123
337T91 324T53 319Q49 319 48 320Q45 320 43 321Q40 322 34 328T20 340T8 354T0 364Q-1 366 -1 369Q-2 372 -2 375Z" />
<glyph unicode=";" glyph-name="semicolon" horiz-adv-x="193" d="M65 -386Q99 -310 109 -229T107 -65L150 -22Q170 -28 179 -47T192 -91T196 -141T195 -185Q195 -189 194 -201T193 -215Q191 -225 186 -249T173 -300T160 -352T150 -386Q148 -388 142 -391T129
-397T116 -404T107 -408H97H85Q82 -406 75 -398T65 -386ZM105 238Q114 238 126 238T149 235T166 225T174 203Q174 182 155 167T109 141T54 126T8 121Q8 147 13 168T30 204T59 229T105 238Z" />
<glyph unicode="&lt;" glyph-name="less" horiz-adv-x="428" d="M20 257Q20 290 40 323T93 387T168 446T253 495T338 528T411 540Q411 511 397 487T358 442T305 402T247 363T192 323T150 278Q149 275 148 274Q148 271 148 268Q148 265 148 262Q149 259 150 257Q152
256 159 247T171 236Q176 232 194 221T237 194T289 161T341 128T383 101T408 85Q410 84 418 76T428 65Q428 62 429 59Q429 58 429 56T430 53Q430 52 430 51T429 48Q428 45 428 43Q426 39 419 31T406 17T393 5T385 0Q369 0 336 12T262 46T179 94T101 150T43 207T20
257Z" />
<glyph unicode="=" glyph-name="equal" horiz-adv-x="535" d="M450 365Q479 367 487 354T495 323Q495 300 482 287T448 268T405 260T364 257Q352 256 327 256T269 255T201 252T133 250T75 249T37 248Q37 290 65 314T135 351T229 367T326 370T406 367T450 365ZM47
544Q130 548 205 552Q238 553 272 555T339 559T402 562T454 565H467Q487 565 493 551T499 523Q499 499 491 485T454 458Q446 458 427 458T385 457T343 457T315 456Q289 456 246 454T159 456T78 474T26 523L47 544Z" />
<glyph unicode="&gt;" glyph-name="greater" horiz-adv-x="450" d="M85 43Q85 59 99 85T135 140T182 201T232 261T274 311T300 343Q300 345 301 348T302 354Q302 354 301 359Q300 361 300 364Q298 368 290 376T278 386Q272 390 254 401T212 428T161 461T109 493T67
520T42 535Q27 545 22 556T16 585Q43 585 86 577T178 554T275 519T363 476T427 426T452 375Q452 373 451 370T450 364Q441 353 423 332T382 282T334 224T285 166T242 117T214 85Q199 68 190 56T174 36T157 24T130 20Q126 20 119 20T104 23T91 29T85 43Z" />
<glyph unicode="?" glyph-name="question" horiz-adv-x="364" d="M193 43Q193 55 202 70T223 98T250 120T278 129Q280 129 288 121T301 107Q303 104 306 98T313 84T319 72T321 65Q321 46 316 37T303 24T285 20T262 20Q258 20 247 20T224 20T202 26T193 43ZM126
430Q126 466 140 497T171 559T202 620T217 688Q217 701 210 712T191 732T166 746T139 751Q120 751 104 741T73 718T47 689T22 664Q20 662 9 660T-6 658Q-6 697 4 730T36 787T88 824T160 838Q188 838 217 825T270 791T308 742T323 686Q323 650 314 621T291 566T264
516T240 466T228 411T236 343Q234 340 228 337T216 330T203 324T193 321Q171 321 158 332T138 360T128 396T126 430Z" />
<glyph unicode="@" glyph-name="at" horiz-adv-x="857" d="M20 349Q20 444 55 529T152 678T296 779T475 816Q538 816 602 789T718 715T803 609T836 482Q836 427 817 369T765 257T686 156T588 74T478 19T364 -2Q293 -2 231 26T122 103T48 214T20 349ZM105 349Q105
291 126 242T185 158T273 103T379 84Q413 84 444 94T502 121T554 163T600 215Q588 228 578 236T559 250T540 257T516 259Q497 259 479 255T444 246T408 237T369 233Q348 233 325 241T282 263T249 298T236 343Q236 382 256 417T307 478T376 519T450 535Q490 535
512 521T547 485T567 438T585 392T614 356T668 341Q696 341 713 357T738 399T749 452T752 506Q752 552 724 592T654 664T562 713T471 731Q397 731 331 699T214 614T135 492T105 349ZM475 456Q409 445 373 428T322 391T313 353T334 322T373 309T418 320T457 365T481
453L475 456Z" />
<glyph unicode="A" glyph-name="A" horiz-adv-x="686" d="M236 878Q242 896 253 899T280 902Q303 902 331 872T390 790T450 673T509 537T563 396T606 268T635 166T645 107Q645 91 638 77T611 62Q599 62 591 69T576 88T565 110T556 129Q552 140 540 171T514 236T488
300T471 343Q401 355 331 365T182 386H171Q135 231 108 141T62 13T33 -19T19 27T19 133T36 278T67 445T110 613T167 763T236 878ZM212 526Q212 489 236 472T294 449T365 445T430 446Q430 486 417 532T384 625T342 714T300 793Q289 782 277 753T252 687T229 615T214
558Q214 555 213 543T212 526Z" />
<glyph unicode="B" glyph-name="B" horiz-adv-x="600" d="M34 746Q46 807 78 842T151 891T240 898T330 868T405 809T450 726T450 625T391 514Q427 501 458 488T510 456T544 410T556 343Q556 310 544 273T511 200T461 132T399 74T332 35T264 20Q242 20 221 48T180
122T141 228T106 352T77 480T55 598T40 691T34 746ZM212 313Q212 296 220 268T240 212T268 161T300 129Q314 121 333 130T371 160T409 207T441 260T464 308T473 343Q473 369 466 385T446 412T414 426T373 430Q348 430 320 422T269 399T229 362T212 313ZM148 653Q148
635 147 609T147 554T153 498T171 450Q220 459 256 484T315 542T348 614T356 688T339 754T298 800T235 817T150 793Q150 785 150 765T149 723T148 681T148 653Z" />
<glyph unicode="C" glyph-name="C" horiz-adv-x="643" d="M20 343Q20 377 29 417T56 497T97 576T151 644T216 691T290 709Q322 709 350 701T398 675T429 633T441 572Q419 572 406 583T381 609T356 634T321 645Q290 645 262 629T209 586T166 525T134 457T113 389T105
332Q105 280 120 235T165 156T237 103T335 84Q370 84 401 94T462 117T521 141T579 152Q583 152 590 152T604 149T616 143T621 129Q621 93 594 68T528 28T449 5T382 -2Q306 -2 240 22T125 92T48 200T20 343Z" />
<glyph unicode="D" glyph-name="D" horiz-adv-x="514" d="M22 678Q22 720 46 747T107 789T186 810T262 816Q327 816 371 791T443 723T483 626T495 514Q495 476 487 425T463 319T424 211T369 115T300 46T215 20Q206 20 194 44T166 110T134 204T101 315T71 431T46
538T28 624T22 678ZM105 621Q105 589 109 548T123 463T147 375T181 291T224 221T278 171Q312 219 337 257T378 333T401 414T409 514Q409 555 404 594T383 663T336 712T257 731Q217 731 180 719T107 686Q107 683 107 674T106 655T106 635T105 621Z" />
<glyph unicode="E" glyph-name="E" horiz-adv-x="664" d="M65 793Q60 793 51 795T31 801T12 808T0 814Q-1 816 -1 818Q-2 820 -2 823Q-2 837 9 847T34 863T63 873T85 878H97H107Q131 876 168 872T246 864T330 855T407 846T465 839T493 836Q501 835 513 833T539
825T563 812T579 793Q571 777 565 769T552 756T538 751T519 751Q477 751 435 754T350 760T266 766T180 769Q180 751 176 715T169 639T170 560T193 493Q228 514 266 515T343 516Q360 516 386 516T436 510T478 490T495 448Q495 428 487 418T450 408Q447 408 438 411T418
418T398 425T386 428Q385 428 379 428T363 429T346 429T332 430Q309 430 288 427T250 415T225 389T215 345Q215 336 217 314T222 266T232 211T248 160T270 121T301 105Q303 105 311 106T321 107Q355 130 389 157T461 207T538 247T621 264V215Q621 211 602 193T551
151T480 100T402 51T328 13T268 -2Q234 -2 208 28T160 109T125 226T101 362T84 501T73 630T68 732T65 793Z" />
<glyph unicode="F" glyph-name="F" horiz-adv-x="514" d="M0 706Q39 726 73 735T142 748T212 752T290 752Q298 752 317 752T359 751T401 751T428 751Q439 747 445 737T454 716T458 694T459 676H129V461H487Q487 427 466 408T414 377T343 363T269 359T207 362T171
364V343Q171 301 191 264T235 191T280 122T301 53Q301 31 292 15T259 -2Q234 -2 210 24T162 93T119 193T80 311T47 433T22 546T6 639T0 697V706Z" />
<glyph unicode="G" glyph-name="G" horiz-adv-x="706" d="M-2 355Q-2 405 12 457T52 558T113 651T192 727T285 778T388 797Q411 797 447 792T518 775T577 744T602 697Q602 695 602 694T601 690Q600 688 600 686Q598 683 590 675T579 664Q577 663 574 663Q571 662
568 662Q564 662 562 663Q560 663 558 664Q553 667 534 676T493 697T452 717T428 729Q424 729 420 730Q417 730 414 730T409 731Q362 731 319 714T240 667T175 598T126 516T95 427T84 338Q84 282 102 238T152 165T228 120T325 105Q355 105 399 113T483 139T552
185T580 256Q580 273 575 282T561 296T539 301T512 302Q490 302 474 295T443 279T412 263T375 256Q349 256 334 264T319 301Q319 329 339 346T388 373T448 385T499 388Q535 388 566 383T619 363T654 323T666 257Q666 195 632 150T547 75T436 32T325 17Q253 17 193
42T89 112T22 220T-2 355Z" />
<glyph unicode="H" glyph-name="H" horiz-adv-x="664" d="M-2 621Q-2 626 -2 638T-1 664T-1 690T0 706Q25 733 41 738T68 733T82 699T89 647T91 586T92 527T96 478T107 450H450Q471 450 480 463T490 497T489 545T484 600T481 656T490 705T517 739T570 752Q583
733 586 711T588 664T583 617T579 571Q579 512 586 453T602 335T618 218T626 102Q628 40 618 14T593 -11T560 20T526 95T501 205T493 343H132Q139 274 150 213T168 106T174 32T153 3Q124 3 104 22T70 76T46 155T31 251T22 355T15 457T8 548T-2 621Z" />
<glyph unicode="I" glyph-name="I" horiz-adv-x="771" d="M321 139Q321 192 308 254T280 381T251 510T236 632H13Q13 640 13 655T16 685T25 713T43 729H593Q592 697 580 680T549 654T505 643T457 637T410 630T371 612T346 577T341 516Q341 495 344 461T354 386T372
306T399 232T437 178T488 157Q508 155 539 156T603 159T663 158T705 146T711 117T667 64Q603 40 538 32T406 23T274 24T143 27Q106 72 99 96T104 129T144 139T204 138T268 134T321 139Z" />
<glyph unicode="J" glyph-name="J" horiz-adv-x="643" d="M191 65Q191 92 207 101T247 113T300 116T352 126T393 156T409 221Q409 346 396 431T342 566T230 634T43 643Q40 644 34 650T20 663T8 676T0 686Q-1 688 -1 690Q-2 693 -2 697Q-2 699 -1 702Q-1 704 0
706Q3 709 8 713T21 720T34 726T43 729Q62 730 100 732T188 736T293 742T406 747T514 751T607 752Q607 721 595 705T566 680T528 667T490 657T460 637T448 597Q448 545 458 496T482 399T505 301T516 202Q516 157 496 120T444 56T371 14T290 -2Q274 -2 257 1T225
12T201 33T191 65Z" />
<glyph unicode="K" glyph-name="K" horiz-adv-x="706" d="M20 692Q20 711 19 733T22 774T38 805T76 818Q95 792 100 754T108 673T112 588T129 514Q130 510 138 503T150 493Q180 519 204 547T253 601T301 652T353 694T417 722T498 733Q498 709 481 685T438 637T381
587T321 535T269 482T236 428Q253 424 292 409T382 371T487 322T586 271T659 223T688 186Q688 183 688 174T687 154T680 137T664 129Q622 130 585 144T513 180T444 225T373 270T299 305T215 321Q200 297 202 275T215 230T243 184T271 135T287 81T278 22Q276 19
271 16T259 8T245 2T236 0Q223 0 208 25T175 93T139 191T103 306T71 426T45 539T27 632T20 692Z" />
<glyph unicode="L" glyph-name="L" horiz-adv-x="621" d="M0 656Q0 676 13 682T43 688Q46 688 54 687T65 686Q68 655 71 612T78 518T88 413T105 308T132 210T171 129Q176 120 180 116T189 109T200 106T215 105Q256 105 293 119T368 150T443 181T523 195Q532 195
546 195T572 194T593 184T602 160Q602 145 575 128T506 93T415 58T320 28T239 8T193 0Q157 0 130 24T82 90T47 185T24 297T10 412T3 518T1 604T0 656Z" />
<glyph unicode="M" glyph-name="M" horiz-adv-x="878" d="M20 428Q20 440 20 467T21 525T21 583T22 621Q23 628 27 642T36 671T51 695T75 706Q108 706 137 688T193 641T244 575T293 504T340 437T386 386Q411 397 425 426T448 494T464 574T485 651T519 708T579
731Q624 731 660 696T726 607T775 487T810 360T831 250T838 180Q838 171 837 161T832 142T819 129T793 129Q788 130 782 134T768 146T756 159T751 171Q742 220 731 280T704 401T662 521T600 621Q571 605 555 573T527 502T507 423T483 351T445 297T383 276Q356 276
331 293T281 339T235 402T191 470T149 533T107 579Q99 548 95 525T88 479T85 434T84 383Q84 341 91 300T106 217T121 135T129 51V43Q127 40 121 34T109 20T95 8T85 0Q84 -1 81 -1Q78 -2 75 -2Q73 -2 70 -1T65 0Q58 58 50 110T36 213T25 316T20 428Z" />
<glyph unicode="N" glyph-name="N" horiz-adv-x="686" d="M65 43Q61 59 55 89T41 155T26 230T13 307T4 376T0 428Q0 437 2 459T8 505T15 550T22 579Q25 580 32 580T48 581T64 582T75 583Q123 583 166 564T248 516T324 451T398 381T475 320T558 278Q558 283 558
293T559 316T559 338T560 354Q560 417 552 477T534 597T516 717T508 842Q515 842 525 842T547 839T567 831T579 814Q583 742 597 670T626 525T652 380T664 236Q664 223 664 208T660 180T648 157T624 148Q572 148 528 171T443 230T362 307T281 384T195 443T99 467Q99
411 107 360T124 257T142 156T150 53Q150 34 137 27T107 20Q94 20 83 22T65 43Z" />
<glyph unicode="O" glyph-name="O" horiz-adv-x="643" d="M0 278Q0 329 13 381T51 482T111 571T188 643T281 691T386 709Q441 709 481 688T549 630T589 548T602 453Q602 369 577 288T503 142T382 38T215 -2Q159 -2 119 23T52 89T13 179T0 278ZM85 256Q85 229 94
199T119 144T159 102T215 85Q282 85 337 115T432 194T494 303T516 422Q516 456 514 492T501 557T467 605T399 624Q385 624 362 623T315 618T275 604T257 579Q257 577 260 571T268 557T275 544T278 535Q278 533 270 525T257 514Q207 501 174 482T121 431T93 357T85
256Z" />
<glyph unicode="P" glyph-name="P" horiz-adv-x="493" d="M10 790Q10 821 21 841T53 873T97 892T148 900T200 903T246 902Q287 902 328 894T400 866T452 813T472 729Q472 685 455 642T410 559T347 487T278 431T212 395T159 385Q147 346 145 302T143 215T146 134T143
68T122 27T76 18Q67 89 63 162T55 307T50 447T43 578T30 694T10 790ZM257 816Q242 816 220 815T178 809T143 790T129 751V489Q170 489 216 511T300 567T363 644T388 729Q388 760 377 777T347 803T305 814T257 816Z" />
<glyph unicode="Q" glyph-name="Q" horiz-adv-x="814" d="M568 171Q528 171 490 158T412 128T333 98T248 84Q189 84 146 107T75 168T34 258T20 367Q20 423 31 487T65 616T122 739T203 845T306 918T433 946Q481 946 521 929T595 883T653 815T694 733T719 644T728
558Q728 517 715 477T686 398T657 321T643 246V236Q654 223 675 201T719 153T757 97T773 40Q773 21 766 11T728 0L706 22Q699 30 681 51T643 96T605 141T579 171H568ZM105 362Q105 320 111 285T134 224T181 184T257 169Q269 169 291 171T340 177T394 189T444 207T480
233T495 268Q495 274 487 287T465 320T435 360T405 403T379 442T364 472Q371 490 382 492T408 495Q427 495 441 484T466 455T488 418T510 381T535 353T568 341Q587 341 600 355T622 392T635 441T642 493T644 538T645 568Q645 619 635 671T599 764T532 832T428 859Q381
859 338 835T259 770T195 677T146 570T116 460T105 362Z" />
<glyph unicode="R" glyph-name="R" horiz-adv-x="706" d="M-2 706Q-2 714 -2 732T-1 771T-1 810T0 836Q11 857 34 866T85 879T139 882T183 881Q205 881 234 879T293 872T352 856T403 829T439 789T453 733Q453 695 435 665T391 608T333 558T275 513T230 468T212
418Q212 416 213 413T215 408Q333 373 444 323T664 215Q667 213 670 208T677 195T683 181T686 171Q686 162 681 158T669 151T655 148T643 148Q589 148 536 171T428 224T319 277T203 301H171Q187 264 199 235T220 179T233 125T238 65Q238 58 238 49T237 29T231 11T215
0Q174 24 142 74T85 190T45 328T18 471T3 603T-2 706ZM84 643Q84 630 83 610T82 568T88 527T107 493Q109 492 111 492Q112 491 116 491Q134 491 159 502T213 531T268 572T318 621T353 671T367 718Q367 738 352 752T316 776T273 789T236 793Q219 793 196 793T151
791T110 778T85 751Q85 745 85 730T85 698T85 665T84 643Z" />
<glyph unicode="S" glyph-name="S" horiz-adv-x="535" d="M171 43Q176 67 196 82T243 111T299 135T352 160T393 190T409 233Q409 265 393 286T349 322T286 347T215 367T143 390T81 422T37 468T20 535Q20 568 33 597T69 653T121 702T183 739T249 762T310 771H321Q330
768 345 761T374 748T398 736T408 729V706Q389 704 359 699T296 684T229 662T168 630T124 589T107 535Q107 492 137 468T212 427T310 399T409 369T484 323T514 246Q514 220 499 192T458 136T400 83T335 40T269 10T212 -2Q204 -2 195 0T180 6T170 20T171 43Z" />
<glyph unicode="T" glyph-name="T" horiz-adv-x="814" d="M408 600Q404 614 393 619T368 624T341 623T321 621Q304 622 262 625T172 631T81 638T22 643Q22 645 21 653T20 664Q20 678 22 689T42 706Q136 704 227 707T410 715T593 726T778 731Q778 693 760 676T716
652T657 647T596 646T544 635T514 600Q513 594 512 577T511 541T510 506T509 482Q509 425 523 370T555 260T587 151T602 40Q602 -2 554 -2Q525 -2 503 38T464 140T437 275T420 415T411 533T408 600Z" />
<glyph unicode="U" glyph-name="U" horiz-adv-x="621" d="M43 686Q59 674 69 657T85 621Q86 583 86 530T90 420T105 307T139 205T202 133T302 105Q357 105 396 131T462 197T501 286T514 383Q514 474 505 568T472 751Q479 769 490 771T514 774Q540 774 555 753T577
700T586 629T587 556T583 495T580 461Q580 409 578 356T566 253T538 162T488 88T411 38T301 20Q220 20 168 51T85 133T38 251T16 386T7 522T0 643L43 686Z" />
<glyph unicode="V" glyph-name="V" horiz-adv-x="643" d="M0 723Q44 723 73 697T122 630T155 535T180 425T204 315T236 219T283 152T354 126Q356 126 359 127Q361 128 364 129Q368 130 376 138T386 150Q388 155 394 183T410 254T434 351T461 460T491 568T520 662T546
727T568 752Q580 752 587 747T597 734T601 717T602 698Q602 683 597 645T582 556T559 443T529 320T494 200T456 98T416 27T375 0Q348 0 323 15T276 54T235 108T200 170T171 229T150 278Q139 305 124 343T92 424T59 508T29 584T8 640T0 664V723Z" />
<glyph unicode="W" glyph-name="W" horiz-adv-x="878" d="M0 602Q0 618 6 631T32 645Q48 645 63 612T95 528T130 415T168 296T210 193T257 129Q281 139 295 164T319 225T332 302T341 385T351 466T365 536T390 584T428 602Q442 602 453 600T472 579Q476 566 485
541T505 483T531 413T561 339T592 271T621 215Q623 211 631 203T643 193L686 236Q703 253 712 286T725 364T731 458T734 559T738 656T748 738T768 795T804 816Q805 816 806 816T810 815Q813 814 814 814Q815 814 819 811T826 804T832 798T836 793Q836 786 836 768T837
729T837 690T838 664Q838 644 838 609T835 530T828 435T814 335T792 240T759 160T714 105T653 84Q619 84 596 106T555 162T526 235T502 309T475 365T439 388Q437 388 434 387T428 386Q427 382 422 351T408 278T386 186T357 96T321 28T278 0Q231 0 192 35T123 127T69
253T31 388T8 512T0 602Z" />
<glyph unicode="X" glyph-name="X" horiz-adv-x="643" d="M148 105Q148 147 155 187T170 267T185 346T193 428V450Q188 454 173 467T140 500T100 542T61 591T32 640T20 686Q20 690 20 698T22 712T29 724T42 729Q66 729 83 716T115 684T141 642T166 600T196 567T236
554Q259 554 278 569T314 606T350 655T391 704T441 742T506 757Q506 730 494 708T463 667T424 628T384 589T353 544T341 491Q341 477 361 452T410 398T475 338T541 281T594 237T621 215Q621 213 622 205T623 193Q623 176 616 162T589 148Q587 148 584 149T579 150Q571
157 557 170T523 201T483 236T443 271T408 301T385 321Q376 329 362 340T335 362T311 380T300 386L278 364Q270 355 267 325T260 255T254 169T245 86T225 23T191 -2Q172 -2 163 10T150 39T147 75T148 105Z" />
<glyph unicode="Y" glyph-name="Y" horiz-adv-x="643" d="M343 558Q304 566 265 594T191 662T124 751T69 850T33 947T20 1031Q20 1036 20 1043T22 1056T29 1067T42 1072Q67 1072 85 1055T118 1008T146 942T172 867T201 792T234 726T277 680T332 662Q334 662 337
663T343 664Q371 689 393 730T435 820T472 919T509 1014T550 1091T600 1137L643 1093Q651 1085 646 1061T627 1000T593 919T551 826T507 731T468 641T439 566T428 514Q428 454 445 398T483 287T520 176T537 62Q537 54 537 42T534 18T521 1T493 0Q456 54 428 122T380
265T351 414T343 558Z" />
<glyph unicode="Z" glyph-name="Z" horiz-adv-x="878" d="M148 51Q148 119 173 180T237 299T321 412T405 521T469 630T495 742Q495 742 495 743T494 747Q493 749 493 751Q484 760 466 766T427 777T384 785T344 789T313 792T301 793Q254 793 221 786T159 770T103
755T40 748Q18 748 9 765T0 804Q0 824 20 837T71 855T139 862T205 864T256 861T278 859Q288 859 312 859T364 859T415 858T450 857Q469 852 495 846T545 830T585 804T602 765Q602 710 580 658T524 554T449 451T369 348T300 241T257 129H301Q368 129 434 133T568
141T702 150T836 154V85Q796 83 746 75T638 58T521 39T401 20T285 6T183 0Q170 0 164 5T153 17T149 34T148 51Z" />
<glyph unicode="[" glyph-name="bracketleft" horiz-adv-x="558" d="M20 540Q20 546 20 555T20 574T26 590T42 600Q146 633 257 654T477 676Q477 669 477 658T475 635T467 614T450 600Q441 598 423 595T381 587T332 579T283 570T241 563T214 558Q209 556 194 554T161
548T128 535T107 514Q119 464 124 413T133 311T140 208T150 107H214Q247 107 279 110T344 117T410 125T475 129Q485 129 494 128T511 123T525 110T535 85Q536 83 534 76T529 63T522 50T514 43Q500 41 472 38T409 31T333 22T257 13T193 5T150 0H126Q100 0 82 34T52
121T34 239T24 364T21 471T20 540Z" />
<glyph unicode="\" glyph-name="backslash" horiz-adv-x="520" d="M42 753Q40 757 37 765T29 783T22 801T16 812Q16 815 20 821T29 834T39 844T48 850Q57 851 79 828T130 766T195 676T268 567T340 453T406 345T458 254T491 193Q497 181 494 173T485 157T470 146T453
138Q429 127 402 141T345 188T286 267T226 367T169 477T118 585T75 681T42 753Z" />
<glyph unicode="]" glyph-name="bracketright" horiz-adv-x="600" d="M231 60Q231 62 231 66T233 76Q234 80 236 85L450 150Q450 157 451 163Q452 168 452 174T453 184Q453 188 453 196T452 212T451 227T450 236Q448 281 442 331T433 433T432 532T450 621Q450
624 450 629T449 640T449 651T448 660Q336 660 226 651T4 641Q4 676 29 698T94 732T181 749T275 754T361 754T420 752Q430 752 446 752T476 751T502 751T514 751Q520 694 524 651T530 568T533 493T534 416Q534 380 538 345T547 276T556 207T560 138Q560 113 543
93T499 58T439 31T375 13T317 2T278 -2Q247 -2 239 15T231 60Z" />
<glyph unicode="^" glyph-name="asciicircum" horiz-adv-x="428" d="M191 982Q211 971 232 950T274 903T316 847T356 790T391 740T419 705Q418 703 413 697T401 685T387 671T376 661Q373 661 372 661Q369 660 366 660Q362 660 359 661Q356 661 355 661Q325 681
309 708T279 760T247 802T196 819Q175 768 163 736T143 686T128 661T110 652T79 653T27 655Q27 674 33 703T51 765T78 833T112 898T150 950T191 982Z" />
<glyph unicode="_" glyph-name="underscore" horiz-adv-x="514" d="M0 85Q13 86 41 88T105 92T180 97T256 101T321 104T364 107H390Q405 107 417 100T430 75Q430 66 423 57T404 39T382 27T364 22H0V85Z" />
<glyph unicode="`" glyph-name="grave" horiz-adv-x="514" d="M103 757Q107 777 116 782T136 784T161 768T189 739T216 705T239 671Q240 670 243 665T250 657Q261 644 261 631T254 608T235 598T211 609L103 757Z" />
<glyph unicode="a" glyph-name="a" horiz-adv-x="621" d="M450 129Q412 103 385 83T331 48T276 27T203 20Q110 20 65 69T20 217Q20 255 30 296T59 377T106 454T167 519T239 563T321 580Q393 573 434 545T496 472T525 373T537 260T549 144T578 37Q565 4 554 -9T528
-14T496 30T450 129ZM105 215Q105 158 126 132T203 105Q244 105 281 119T347 159T392 221T409 301Q409 319 410 351T406 416T387 471T345 495Q293 495 249 469T173 401T123 311T105 215Z" />
<glyph unicode="b" glyph-name="b" horiz-adv-x="621" d="M171 43Q140 133 113 211T65 365T32 519T20 686Q20 693 20 711T21 750T21 788T22 814Q31 834 53 851T99 868Q99 794 101 711T113 544T147 382T214 236Q215 260 216 289T221 347T236 403T265 451T316 484T396
495Q439 495 473 479T531 436T567 372T580 294Q580 239 553 186T482 91T382 24T270 -2Q241 -2 214 8T171 43ZM408 408Q388 397 366 382T326 336T294 250T278 107Q280 107 288 106T300 105Q327 105 361 122T428 164T485 219T514 278Q517 295 507 317T481 359T445
394T408 408Z" />
<glyph unicode="c" glyph-name="c" horiz-adv-x="472" d="M0 301Q0 343 18 389T68 472T139 535T225 560Q248 560 271 552T312 529T342 493T354 446Q336 446 322 450T293 459T266 469T236 473Q195 473 170 453T129 401T109 335T103 268Q103 263 103 249T104 220T105
190T107 171Q118 147 128 134T151 115T177 107T210 105Q236 105 255 113T292 132T324 156T355 181T391 200T436 208Q436 159 419 121T370 56T296 15T203 0Q156 0 119 32T55 110T14 209T0 301Z" />
<glyph unicode="d" glyph-name="d" horiz-adv-x="558" d="M-2 118Q-2 176 27 221T99 299T192 356T285 395T357 420T386 436Q386 471 383 504T375 572T368 639T364 706V771Q405 786 422 768T428 706Q432 684 439 637T454 531T472 407T490 283T505 177T514 107Q515
102 516 88T517 57T518 26T519 6Q481 6 468 9T451 21T447 47T437 94Q400 65 367 46T301 16T235 0T163 -5Q131 -5 102 0T49 20T12 58T-2 118ZM85 139Q85 123 92 113T110 96T133 87T158 84Q193 84 233 97T308 135T365 194T388 268Q388 299 377 311T335 323Q303 323
261 308T179 268T112 210T85 139Z" />
<glyph unicode="e" glyph-name="e" horiz-adv-x="558" d="M20 278Q20 332 33 386T74 483T148 553T259 580Q296 580 324 567T371 531T399 480T409 418Q409 367 386 319T323 235T232 180T128 171Q129 142 147 125T192 98T246 87T296 84Q319 84 339 88T379 97T419
106T463 110Q472 110 481 109T498 105T511 94T516 75Q516 56 502 44T467 22T419 9T369 2T324 -1T293 -2Q229 -2 178 18T92 75T39 163T20 278ZM126 343Q126 308 135 292T182 276Q208 276 233 285T278 312T311 352T323 402Q323 417 321 433T310 462T290 484T257 493Q227
493 203 480T161 445T135 397T126 343Z" />
<glyph unicode="f" glyph-name="f" horiz-adv-x="706" d="M427 -93Q406 -54 381 4T328 126T272 251T212 357Q200 366 179 368T135 370T90 370T51 381T26 409T23 464H191Q196 520 208 575T240 680T290 773T360 847T454 896T576 914Q600 914 624 903T667 872T697
829T709 781Q690 781 675 788T646 805T616 823T580 832Q520 832 469 808T379 744T318 651T296 539Q296 535 296 525T297 502T297 479T298 464Q335 452 381 446T473 439T563 439T641 444Q644 441 652 433T661 421Q661 418 662 417Q664 411 664 411Q664 390 642 378T586
361T511 353T431 350T362 346T319 336Q332 276 365 220T434 108T496 -5T523 -122Q519 -122 505 -122T474 -121T444 -113T427 -93Z" />
<glyph unicode="g" glyph-name="g" horiz-adv-x="579" d="M278 -532Q334 -532 378 -512T452 -456T499 -375T516 -280Q516 -255 514 -214T506 -125T492 -27T468 67T434 145T386 193Q360 173 335 157T283 129T227 112T165 105Q122 105 92 113T41 140T10 190T0 268Q0
301 16 332T58 391T118 442T187 482T257 508T319 517Q345 517 362 516T391 508T411 488T428 451Q451 373 481 283T538 98T583 -93T602 -280Q602 -360 580 -415T521 -506T438 -561T344 -585T253 -588T177 -577T129 -557T120 -539T166 -528T278 -532ZM292 433Q218
417 173 389T105 328T80 263T92 207T132 173T193 171T265 217T343 321Q343 338 343 358T340 394T325 422T292 433Z" />
<glyph unicode="h" glyph-name="h" horiz-adv-x="488" d="M49 650Q49 661 51 677T60 709T77 734T103 745Q104 745 108 744T113 743Q130 681 133 620T131 502T116 391T100 292T92 211T102 150Q100 166 100 188T103 235T118 283T149 326T200 356T279 367Q328 367
363 350T422 304T456 235T468 150Q468 129 468 103T461 54T438 16T389 0Q389 16 391 43T393 102T392 165T378 222T348 264T294 281Q282 281 265 280T229 270T194 246T167 201T156 129T166 22Q159 4 149 1T122 -2Q90 -2 70 20T38 81T24 169T21 273T26 384T35 491T44
583T49 650Z" />
<glyph unicode="i" glyph-name="i" horiz-adv-x="236" d="M62 375Q62 381 62 394T63 423T64 452T65 472Q76 488 93 498T129 514Q132 460 146 399T176 277T204 155T217 43Q217 -2 171 -2Q143 -2 124 21T94 79T75 158T66 244T63 321T62 375ZM76 750Q95 742 108 724T120
692T97 672T27 683Q27 710 37 730T76 750Z" />
<glyph unicode="j" glyph-name="j" horiz-adv-x="301" d="M-217 -315Q-188 -315 -164 -330T-114 -362T-56 -395T16 -410Q57 -410 96 -400T166 -368T216 -312T235 -230Q235 -152 223 -68T191 99T149 262T107 408Q107 409 106 413T105 418Q105 438 119 445T149 453Q153
453 161 452T171 451Q202 373 229 292T278 126T311 -42T323 -210Q323 -275 301 -328T238 -418T143 -475T22 -495Q-21 -495 -63 -486T-140 -455T-196 -400T-217 -315ZM18 697Q18 700 18 709T20 727T27 744T42 751Q59 751 68 747T81 736T86 720T87 698Q87 690 86
680T82 661T72 647T53 641Q41 641 34 646T24 660T19 678T18 697Z" />
<glyph unicode="k" glyph-name="k" horiz-adv-x="579" d="M214 20Q198 6 181 33T145 114T110 245T76 406T46 578T20 743Q20 757 20 771T22 798T35 821T65 836Q67 837 73 835T87 829T99 821T107 814Q94 627 150 450Q153 453 166 470T199 511T244 562T298 612T354
650T408 666Q423 666 437 659T452 632Q452 630 451 627T450 621Q434 607 402 578T333 513T264 438T214 364Q211 358 212 354T214 343Q225 339 249 331T302 313T364 291T426 268T478 249T514 236Q528 230 537 228T551 223T558 213T560 195Q560 166 546 157T506 148Q429
153 355 180T205 247Q202 228 207 203T221 153T236 104T245 61T241 31T214 20Z" />
<glyph unicode="l" glyph-name="l" horiz-adv-x="234" d="M44 566Q44 595 40 622T38 671T53 706T103 719Q114 696 124 649T145 541T164 409T180 265T193 124T202 -3Q169 -25 149 -6T116 58T96 169T83 305T67 444T44 566Z" />
<glyph unicode="m" glyph-name="m" horiz-adv-x="878" d="M-2 420Q-2 445 6 459T43 473Q46 473 54 473T65 472Q72 441 79 405T97 331T119 258T150 193Q168 212 176 238T188 290T195 341T210 383T242 409T302 409Q344 409 369 394T412 355T448 305T493 257Q499
270 508 289T530 330T559 373T592 412T627 441T662 453Q703 453 733 428T784 364T820 278T842 186T853 106T857 53Q857 40 851 33T836 23T817 18T797 17Q795 17 791 17T782 19Q778 20 771 22L706 321Q706 324 698 332T686 343Q683 343 681 344Q679 344 678 344T676
345Q655 345 637 328T602 285T572 227T547 164T528 106T514 65Q510 63 498 62T482 60Q454 60 439 79T415 128T399 191T383 255T357 303T310 323Q299 323 289 301T271 246T256 174T245 102T238 45T236 22Q234 19 228 16T216 8T203 2T193 0Q165 0 139 25T92 91T53
181T23 277T5 362T-2 420Z" />
<glyph unicode="n" glyph-name="n" horiz-adv-x="579" d="M20 337Q20 363 33 374T75 386H85Q88 370 92 349T104 306T123 266T150 236Q151 271 167 303T208 361T262 404T321 428H343Q391 428 425 407T481 351T516 272T534 183T542 95T544 22H471Q465 82 456 137Q453
159 448 183T437 229T424 269T408 301Q404 305 398 312T384 326T371 338T364 343Q334 351 312 332T273 279T246 204T228 124T218 57T214 22Q189 4 167 11T126 43T91 103T62 179T39 261T20 337Z" />
<glyph unicode="o" glyph-name="o" horiz-adv-x="514" d="M20 203Q20 265 49 318T125 410T232 471T353 493Q387 493 413 471T458 418T485 351T495 290Q495 234 468 182T398 89T301 23T193 -2Q145 -2 112 14T59 58T30 123T20 203ZM105 193Q105 167 109 148T125
114T156 93T203 85Q240 85 277 105T343 157T391 227T409 301Q409 317 406 336T396 371T376 398T343 409Q325 409 301 397T250 366T198 323T151 275T118 229T105 193Z" />
<glyph unicode="p" glyph-name="p" horiz-adv-x="472" d="M20 369Q20 466 65 513T203 560Q241 560 281 553T356 529T411 480T433 400Q433 346 410 299T351 210T273 133T193 65Q191 61 190 49T188 32Q188 -1 207 -34T250 -102T292 -174T311 -251Q311 -275 301 -279T259
-284Q239 -276 220 -247T181 -174T143 -78T108 31T77 141T51 242T32 321T20 369ZM105 360Q105 345 107 317T115 260T135 212T171 191Q202 191 233 212T289 265T329 333T345 400Q345 425 333 439T303 462T263 473T223 476Q166 476 136 446T105 360Z" />
<glyph unicode="q" glyph-name="q" horiz-adv-x="551" d="M377 130Q356 130 336 123T296 107T256 91T212 84Q168 84 133 98T74 139T36 200T22 278Q22 333 43 370T98 431T177 463T267 473Q318 471 359 440T432 358T489 246T528 118T551 -8T557 -116T549 -192T526
-217Q499 -213 486 -194T465 -145T456 -82T453 -13T450 53T440 105T418 134T377 130ZM107 268Q107 251 115 234T138 203T169 180T203 171Q220 171 247 178T300 200T345 234T364 278Q364 312 360 337T346 378T317 401T267 409Q242 409 214 398T163 366T123 321T107
268Z" />
<glyph unicode="r" glyph-name="r" horiz-adv-x="511" d="M20 420Q20 429 21 438T25 455T34 468T53 473Q63 473 75 458T101 419T126 367T148 316T164 275T171 257Q184 292 200 333T239 409T295 469T375 493Q399 493 420 486T458 464T485 429T495 383Q495 361 478
352T438 343H428L385 386Q383 386 382 387Q380 387 379 387T375 388Q340 388 321 369T291 321T279 261T276 203Q276 183 280 163T289 123T298 83T302 40Q302 -2 257 -2Q232 -2 205 24T152 92T101 182T59 279T31 364T20 420Z" />
<glyph unicode="s" glyph-name="s" horiz-adv-x="493" d="M212 45Q228 56 250 73T296 111T339 153T370 195T382 234T364 264Q332 264 294 262T218 259T145 266T81 288T37 333T20 409Q20 463 40 506T95 583T171 642T257 686Q283 679 305 661T343 621Q336 599 316
587T269 566T213 547T161 521T121 478T105 408Q105 376 121 361T163 341T222 336T289 341T357 344T416 337T457 309T473 253Q473 237 463 212T435 159T394 102T345 52T294 15T246 0Q225 0 219 15T212 45Z" />
<glyph unicode="t" glyph-name="t" horiz-adv-x="643" d="M-2 504Q-2 507 -1 509Q-1 511 0 514Q4 519 12 527T22 535H223Q223 546 220 570T215 623T213 683T221 740T245 782T292 799Q292 698 306 637T343 543T397 500T458 491T520 501T573 512T611 508T625 472Q625
451 616 442T579 428Q571 427 553 425T511 420T462 416T413 411T371 409T343 408Q343 403 342 391T341 375Q341 331 355 290T385 207T416 125T430 40Q430 32 429 24T423 9T410 -1T386 0Q348 10 330 43T302 121T290 218T281 313T260 389T215 428L22 472Q18 472 10
480T0 493Q-1 495 -1 498Q-2 500 -2 504Z" />
<glyph unicode="u" glyph-name="u" horiz-adv-x="514" d="M20 408Q20 414 20 429T21 462T21 493T22 514Q29 526 38 537T58 553T81 555T107 535V527V514Q106 509 103 491T96 450T89 410T85 386Q85 367 89 339T100 279T119 217T147 162T182 121T228 105Q260 105
284 122T327 166T356 227T375 295T385 362T388 418Q388 442 385 463T376 506T368 547T364 589Q364 608 377 616T408 624Q429 624 442 612T462 580T472 537T475 488T474 443T473 408Q473 374 468 331T451 243T420 153T375 75T314 19T236 -2Q191 -2 157 19T100 76T60
157T36 247T24 334T20 408Z" />
<glyph unicode="v" glyph-name="v" horiz-adv-x="535" d="M14 521Q21 545 30 543T54 520T85 464T123 389T166 306T215 229T269 171T328 144L408 558Q410 575 423 577T450 580Q495 580 495 538Q495 516 491 468T478 363T456 245T425 134T384 52T332 20Q291 20 251
47T176 119T111 219T60 329T26 436T14 521Z" />
<glyph unicode="w" glyph-name="w" horiz-adv-x="751" d="M-2 428Q-2 445 5 459T32 473Q33 473 35 473T39 472Q41 472 43 472Q46 470 54 462T65 450Q68 444 77 424T100 378T128 322T156 265T179 219T193 193Q194 190 202 182T215 171Q223 185 231 213T247 274T265
343T285 407T311 454T343 473Q369 473 392 453T437 401T478 330T515 252T548 181T579 129Q591 133 599 149T611 182T618 215T621 236Q622 247 624 270T628 324T633 386T637 448T641 501T643 535Q645 535 653 536T664 538Q678 538 689 535T706 514Q706 507 706 489T707
451T708 412T709 386Q709 370 709 337T709 262T702 179T687 101T658 43T613 20Q582 20 555 35T505 75T460 130T422 192T390 252T364 301Q356 283 350 256T335 198T317 135T295 78T266 36T228 20Q218 20 210 20T195 20T182 27T171 43L0 408Q0 409 -1 416T-2 428Z"
/>
<glyph unicode="x" glyph-name="x" horiz-adv-x="493" d="M0 472Q-1 473 -1 475Q-2 477 -2 482Q-2 501 14 508T45 516Q47 516 49 516T56 515Q59 514 65 514L205 396Q241 448 263 477T299 519T318 535T328 538Q335 538 343 538T361 537T376 530T386 514Q369 497
354 480T326 444T302 400T278 346Q297 332 325 307T383 251T441 189T487 129T511 81T504 55Q490 37 485 29T475 23T460 42T428 87T363 162T254 269L246 22Q246 21 242 18T234 12T224 5T215 0H203H193Q188 4 180 12T171 22V301L0 472Z" />
<glyph unicode="y" glyph-name="y" horiz-adv-x="493" d="M3 517Q3 526 3 535T7 553T17 566T37 571Q38 571 39 571T43 571Q46 570 48 570Q67 544 81 504T108 418T136 326T175 242T234 183T321 164Q344 164 351 189T358 253T357 339T356 428T371 503T415 546Q428
520 436 465T449 337T453 180T449 12T437 -149T419 -284T396 -375T367 -404Q346 -384 335 -352T319 -281T315 -199T318 -111T324 -25T328 52Q292 49 255 63T181 106T113 178T56 273T17 387T3 517Z" />
<glyph unicode="z" glyph-name="z" horiz-adv-x="579" d="M364 493Q366 495 367 498T369 504Q369 527 342 534T273 542T185 537T96 533T28 543T0 579Q0 596 2 604T10 616T22 620T39 621H65Q77 620 104 619T165 616T236 612T307 607T367 603T408 600Q426 589 438
580T458 562T469 543T473 516Q473 482 459 450T424 385T375 320T321 255T272 191T236 129H493Q522 129 530 118T538 87Q538 73 535 61T514 43Q466 39 417 31T319 15T221 1T122 -5Q122 67 144 133T202 262T280 382T364 493Z" />
<glyph unicode="{" glyph-name="braceleft" horiz-adv-x="472" d="M146 265Q146 283 156 301T180 335T209 368T234 401Q207 436 179 471T129 544T93 621T79 708Q79 743 94 777T135 837T195 879T266 895Q278 895 292 893T320 885T345 872T362 852Q338 838 306 827T242
802T189 765T167 704Q167 673 178 647T207 598T244 552T282 507T310 457T321 400Q321 380 314 363T299 331T284 299T276 265Q276 261 274 233T272 165T273 80T284 -4T310 -69T358 -95Q378 -95 393 -87T422 -70T449 -54T481 -46Q499 -46 506 -60T514 -93Q514 -122
497 -142T453 -176T398 -194T346 -200Q301 -200 270 -174T216 -106T180 -12T159 91T149 189T146 265Z" />
<glyph unicode="|" glyph-name="bar" horiz-adv-x="278" d="M57 570Q57 598 53 625T51 675T67 710T116 723Q136 705 153 661T186 557T212 424T231 277T243 130T246 -3Q221 -19 203 -12T170 20T145 84T124 171T108 273T93 379T76 481T57 570Z" />
<glyph unicode="}" glyph-name="braceright" horiz-adv-x="343" d="M40 -132Q40 -106 49 -95T73 -78T104 -71T136 -63T160 -43T170 1Q170 22 160 43T137 88T115 135T104 185Q104 187 104 190T105 196Q105 200 106 204Q108 208 118 223T140 257T160 291T170 311Q170
332 157 354T127 401T97 452T83 508Q83 538 93 563T117 611T140 657T151 707Q151 733 133 746T90 766T42 773T5 774Q5 796 12 811T33 834T62 846T98 850Q121 850 148 841T200 817T241 779T258 729Q258 728 258 727T257 724Q256 721 256 719Q255 714 248 699T232
664T213 622T194 580T179 545T170 526V515Q170 485 181 465T210 431T246 406T282 384T311 360T322 326Q322 305 314 291T294 266T267 245T240 224T219 198T211 161Q211 138 218 119T234 80T250 40T258 -5Q258 -35 252 -66T229 -123T189 -165T128 -182Q112 -182
97 -181T69 -176T48 -161T40 -132Z" />
<glyph unicode="~" glyph-name="asciitilde" horiz-adv-x="621" d="M34 514Q34 547 40 583T62 650T106 701T180 721Q212 721 235 707T277 671T312 624T346 576T385 540T436 526Q470 526 485 536T506 562T510 599T508 638T512 673T534 698H544H554Q557 697 563
695T576 689T589 683T598 678Q598 674 598 667T599 651T599 634T600 624Q600 536 554 487T422 437Q389 437 365 450T323 483T289 526T258 569T224 602T180 616Q148 616 135 604T116 572T111 530T108 485T96 446T63 420L40 441Q40 444 39 453T37 474T35 496T34 514Z"
/>
<glyph unicode="&#xa0;" glyph-name="nbspace" horiz-adv-x="461" />
<glyph unicode="&#xa1;" glyph-name="exclamdown" horiz-adv-x="188" d="M117 650Q130 650 142 657T158 675T152 699T109 723Q82 719 71 711T58 692T62 673T78 656T99 647T117 650ZM42 41Q69 18 84 30T106 79T115 165T116 267T118 366T127 441Q127 455 125 465T118
481T102 491T73 494Q70 494 67 492T61 476T55 434T50 356T45 229T42 41Z" />
<glyph unicode="&#xa2;" glyph-name="cent" horiz-adv-x="472" d="M118 644Q135 682 150 676T179 634Q191 604 202 558Q213 560 225 560Q248 560 271 552T312 529T342 493T354 446Q336 446 322 450T293 459T266 469T236 473Q228 473 220 472Q227 439 233 403Q246
332 257 257Q268 186 280 124Q286 128 292 131Q309 143 324 156T355 181T391 200T436 208Q436 159 419 121T370 56Q340 31 301 16Q303 11 305 4Q317 -43 329 -61Q328 -61 314 -63T285 -67T256 -72T242 -74Q231 -39 220 0H203Q156 0 119 32T55 110T14 209T0 301Q0
343 18 389T67 472Q93 502 123 525Q118 589 118 644ZM129 400Q114 370 109 335T103 268Q103 263 103 249T104 220T105 190T107 171Q118 147 128 134T151 115T176 106Q184 105 194 105Q175 191 158 281Q146 348 136 414Q132 408 129 400Z" />
<glyph unicode="&#xa3;" glyph-name="sterling" horiz-adv-x="621" d="M-81 333Q-81 336 -80 344T-79 354Q-64 354 -40 355T13 359Q9 400 7 447T3 537T1 612T0 656Q0 703 28 723T99 745T196 734T299 699T392 653T454 607T469 571T417 556Q416 556 391 564T328
584T244 610T160 635T70 663Q72 642 74 607T77 531T82 447T89 366Q116 368 141 369T190 371T231 372T262 369Q280 369 287 365T294 337Q277 326 255 318T207 305T154 297T101 292Q106 259 109 236T116 193T129 157T151 118Q170 106 174 101T181 96T193 104T229
123T310 154T454 195Q517 187 549 164T594 112T604 57T592 14T574 -1T564 30Q564 67 540 83T477 100T393 90T306 63T234 30T193 0Q175 -21 158 -20T123 -1T89 48T59 119T35 202T20 290H-36Q-64 288 -72 300T-81 333Z" />
<glyph unicode="&#xa4;" glyph-name="currency" horiz-adv-x="686" d="M115 312Q115 347 125 380T153 443L40 566Q39 568 39 570Q38 571 38 576Q38 596 53 603T85 610Q86 610 89 610T95 609Q99 608 104 608L207 507Q256 552 319 577T449 602Q467 602 483 595T512
577Q533 585 553 595T590 614T617 630T630 636Q643 636 654 620T670 582Q657 570 627 553T560 515Q575 485 582 454T590 398Q590 352 572 308T520 225Q543 200 561 176T590 132T603 99T594 80Q582 66 577 58T567 48T559 53T544 74T516 114T465 174Q426 142 381
125T289 107Q268 107 251 110T219 119L148 21Q148 20 145 17T136 10T126 4T117 -1H94Q90 3 82 11T74 21L159 159Q136 188 126 227T115 312ZM193 301Q193 276 197 257T213 223T244 202T292 194Q329 194 365 214T431 266T479 335T498 409Q498 426 495 444T485 479T464
506T431 517Q398 517 357 505T279 466T218 398T193 301Z" />
<glyph unicode="&#xa5;" glyph-name="yen" horiz-adv-x="643" d="M559 351Q588 353 596 341T604 310Q604 285 591 272T557 253T513 246T472 243Q461 242 435 241Q438 151 438 57V36Q438 24 435 14T422 -3T394 -5Q358 49 345 119Q334 176 331 238H309Q274 238 242
237T183 236T146 235Q146 276 174 300T244 337Q284 349 331 353L335 414L337 439H327Q298 439 268 442T212 452T165 472T135 508L156 530Q238 535 313 538Q328 539 342 539Q342 549 343 558Q304 566 265 594T191 662T124 751T69 850T33 947T20 1031Q20 1036 20
1043T22 1056T29 1067T42 1072Q67 1072 85 1055T118 1008T146 942T172 867T201 792T234 726T277 680T332 662Q334 662 337 663T343 664Q371 689 393 730T435 820T472 919T509 1014T550 1091T600 1137L643 1093Q651 1085 646 1061T627 1000T593 919T551 826L507
731Q485 683 468 641T439 566Q436 554 433 544H447Q481 546 510 547T563 551H576Q596 551 602 538T608 508Q608 484 600 471T563 445Q555 445 536 445T494 444T452 443H428Q429 399 430 355H435Q481 355 515 353T559 351Z" />
<glyph unicode="&#xa6;" glyph-name="brokenbar" horiz-adv-x="236" d="M67 435Q59 468 54 494T44 544T37 594T34 651V688Q34 715 39 740T55 784T89 803Q106 803 115 780T129 721T134 642T135 559T137 487T144 443L67 435ZM151 377Q162 336 165 288T169 195T172
114T178 62Q178 60 179 56T180 50Q180 40 173 33T156 23T134 18T113 16Q110 16 102 17T92 18Q79 59 78 103T78 192T80 283T70 377H151Z" />
<glyph unicode="&#xa7;" glyph-name="section" horiz-adv-x="487" d="M105 49Q126 44 160 40T231 35T302 38T357 53T380 85T355 137Q326 137 293 136T228 136T165 144T112 165T75 204T61 267Q61 317 82 354T139 419Q114 423 93 430T56 452T31 487T22 537Q22 586
39 619T85 671T150 699T226 708T304 699T375 677Q398 667 403 653T402 625T383 604T355 598Q336 603 310 609T255 621T199 626T149 619T114 591T100 536Q100 508 119 495T168 477T233 475T301 483Q327 484 353 481T400 467T434 439T447 395Q447 381 446 363T441
324T428 284T402 248T359 220Q336 209 305 205Q335 206 363 202Q394 197 417 183T454 145T468 85Q468 52 445 31T386 -2T305 -19T219 -25T142 -25T88 -24Q71 -24 68 -11T70 18T85 44T105 49ZM211 225Q234 226 261 236T314 261T357 297T382 338T379 379T335 418Q323
421 304 421T262 417T218 402T179 373T150 329T139 266Q139 251 144 243T159 232T182 228T211 225Z" />
<glyph unicode="&#xa8;" glyph-name="dieresis" horiz-adv-x="768" d="M267 785Q312 785 312 738Q301 709 285 699T253 692T227 707T214 734T225 763T267 785ZM494 785Q539 785 539 738Q527 709 511 699T480 692T453 707T441 734T451 763T494 785Z" />
<glyph unicode="&#xa9;" glyph-name="copyright" horiz-adv-x="826" d="M206 377Q206 410 221 446T263 513T323 563T395 583Q415 583 434 577T469 559T493 530T503 493Q489 493 477 496T453 503T430 511T405 515Q371 515 350 498T316 457T298 404T293 351Q293
346 293 336T294 313T295 290T296 274Q305 256 313 245T332 229T355 223T382 222Q415 222 437 234T478 263T519 291T573 304Q573 265 559 235T517 183T455 150T378 139Q338 139 306 164T252 227T218 305T206 377ZM34 355Q34 398 41 444T63 534T101 617T155 687T225
735T314 753Q396 769 479 748T628 676T734 549T774 380Q775 322 754 267T696 162T607 74T498 10T376 -24T251 -22Q201 -22 166 -4T106 45T68 114T46 195T37 279T34 355ZM100 306Q100 265 108 220T137 135T193 70T280 44Q332 33 384 43T486 78T576 139T647 217T691
300T700 380Q711 418 700 458T662 535T597 603T516 656T425 687T336 689Q292 689 257 671T196 621T152 549T122 467T106 382T100 306Z" />
<glyph unicode="&#xaa;" glyph-name="ordfeminine" horiz-adv-x="369" d="M272 337Q249 323 233 312T202 294T170 283T127 279Q72 279 46 305T20 385Q20 405 25 427T42 471T70 512T106 547T148 571T196 580Q238 577 262 562T298 522T315 469T323 408T330 346T347
288Q339 270 333 263T318 260T298 284T272 337ZM70 384Q70 353 82 339T127 325Q151 325 173 332T211 354T238 387T248 430Q248 440 248 457T246 492T235 522T210 535Q180 535 154 521T110 484T81 436T70 384Z" />
<glyph unicode="&#xab;" glyph-name="guillemotleft" horiz-adv-x="826" d="M20 257Q20 290 40 323T93 387T168 446T253 495T338 528T411 540Q411 511 397 487T358 442T305 402T247 363T192 323T150 278Q149 275 148 274Q148 271 148 268Q148 265 148 262Q149
259 150 257Q152 256 159 247T171 236Q176 232 194 221T237 194T289 161T341 128T383 101T408 85Q410 84 418 76T428 65Q428 62 429 59Q429 58 429 56T430 53Q430 52 430 51T429 48Q428 45 428 43Q426 39 419 31T406 17T393 5T385 0Q369 0 336 12T262 46T179 94T101
150T43 207T20 257ZM330 259Q330 292 350 325T403 389T478 448T564 496T648 529T722 542Q722 513 707 489T668 444T615 404T557 365T503 325T461 280Q460 277 459 275Q458 273 458 270Q458 266 459 264Q460 261 461 259Q463 257 470 249T482 238Q488 234 506 223T548
196T599 163T651 130T694 103T718 87Q721 85 729 77T739 67Q739 64 740 61Q740 59 740 58T741 55Q741 54 741 53T740 49Q739 47 739 45Q736 40 730 33T716 19T703 7T696 2Q679 2 646 14T573 48T489 96T411 152T353 209T330 259Z" />
<glyph unicode="&#xac;" glyph-name="logicalnot" horiz-adv-x="626" d="M505 199Q503 230 501 249T497 280T493 301T490 319T488 342T487 380Q374 380 264 370T43 360Q43 395 68 417T133 452T220 468T314 474T399 474T459 472Q469 472 484 472T515 471T541 471T553
470Q558 427 562 400T569 355T574 323T578 293T581 256T584 199H505Z" />
<glyph unicode="&#xad;" glyph-name="hyphen_" horiz-adv-x="514" d="M76 325Q76 328 77 336T78 346Q94 346 121 348T182 353T250 359T318 363T377 364T419 361Q437 361 444 357T452 330Q422 310 377 301T285 287T194 283T121 282Q94 280 85 293T76 325Z" />
<glyph unicode="&#xae;" glyph-name="registered" horiz-adv-x="752" d="M40 342Q40 383 50 429T78 519T124 603T186 673T263 720T355 738Q400 738 445 723T531 681T608 620T670 543T711 457T726 369Q726 317 713 265T675 165T612 79T526 13T419 -28T292 -36Q241
-36 204 -18T138 30T91 100T61 181T45 265T40 342ZM111 310Q111 269 123 224T159 140T222 75T312 49Q359 40 400 44T477 62T541 100T591 153Q563 158 535 168T477 191T412 215T337 237Q349 216 357 199T372 166T380 134T383 99Q383 95 378 90T366 78T350 67T334
61Q312 78 297 109T271 180T252 261T240 344T229 419T218 475Q214 508 225 530T256 563T299 578T345 578Q369 578 401 575T463 563T512 536T533 491Q536 449 527 419T501 369T464 336T424 317T388 308T365 306Q365 304 366 303Q367 302 368 301Q435 283 498 260T625
211Q641 249 645 289T641 367Q641 413 620 463T564 555T483 625T383 652Q317 652 266 618T181 533T129 421T111 310ZM292 452Q292 444 291 432T290 407T294 383T308 363Q309 362 310 362Q310 361 314 361Q370 365 401 379T444 411T454 448T438 484T405 510T363
519T323 502T292 452Z" />
<glyph unicode="&#xaf;" glyph-name="overscore" horiz-adv-x="420" d="M50 583Q50 586 51 594T52 605Q77 605 116 608T197 613T277 616T339 612Q357 612 364 608T372 580Q342 561 306 553T232 541T159 539T95 540Q68 538 59 551T50 583Z" />
<glyph unicode="&#xb0;" glyph-name="degree" horiz-adv-x="320" d="M15 496Q15 531 30 561T70 612T125 646T188 659Q205 659 219 647T242 617T256 579T261 545Q261 513 247 484T211 431T161 394T105 380Q80 380 63 389T36 414T20 451T15 496ZM59 490Q59 475 61
464T70 445T86 433T110 429Q129 429 148 440T182 470T207 509T217 551Q217 560 216 570T210 590T200 605T182 612Q173 612 161 605T134 588T107 564T83 537T66 511T59 490Z" />
<glyph unicode="&#xb1;" glyph-name="plusminus" horiz-adv-x="663" d="M85 80Q85 106 102 113T152 118T230 111T333 107Q319 128 310 153T293 203T282 253T276 294L62 337Q59 337 51 345T40 358Q40 360 40 363Q39 365 39 369Q39 373 40 375Q40 378 40 380Q44
384 52 392T62 400H276Q283 453 293 508T319 616H341Q346 614 353 611T366 604T378 597T383 593V392Q400 392 426 398T477 404T518 396T535 355Q535 337 524 329T496 316T460 311T423 306T395 295T383 273Q383 249 391 231T411 195T431 159T443 118Q470 118 496
120T544 124T583 128T608 128Q617 128 621 121T628 104T631 82T632 58Q612 45 572 37T482 25T377 20T272 18T183 19T125 20Q112 19 104 24T91 39T86 59T85 80Z" />
<glyph unicode="&#xb2;" glyph-name="twosuperior" horiz-adv-x="431" d="M129 367Q129 400 135 432T148 497T162 562T168 630Q168 635 168 646T168 669T168 692T167 708Q166 710 162 715T155 721H149Q129 721 117 713T95 691T78 663T61 636T41 614T13 605Q13
637 23 667T53 721T100 759T160 774Q174 774 182 773T197 768T208 755T218 733Q218 728 218 716T218 690T218 662T219 644Q219 612 216 582T207 521T199 461T195 399H205L343 463Q344 463 346 463T351 464T356 464T360 465Q365 465 371 464T382 462T390 456T394
444Q394 432 387 425T369 413T348 406T330 399Q324 396 313 390T287 377T255 361T224 345T198 331T180 322Q179 322 177 322T171 322T165 322T161 321Q149 321 143 323T133 332T130 346T129 367Z" />
<glyph unicode="&#xb3;" glyph-name="threesuperior" horiz-adv-x="332" d="M173 307Q173 308 174 313T175 320Q189 331 206 348T239 385T264 427T274 471Q274 473 274 474T274 476Q274 477 274 478Q271 481 266 486T255 498T244 510T237 518Q235 518 234 519Q233
519 232 519T230 519Q219 519 205 510T176 488T151 466T137 452Q136 451 134 451Q133 450 130 450Q128 450 128 451Q126 451 125 452Q122 453 117 458T112 466V471V478Q117 494 125 517T141 566T155 617T161 663Q161 678 160 692T155 719T141 737T117 744Q97 744
82 732T56 702T40 663T38 624H13Q12 624 11 630T7 645T3 662T0 677V690Q0 711 11 730T40 765T78 788T115 797Q142 797 159 787T188 761T205 723T213 678T214 630T211 584Q235 580 255 572T291 551T316 518T325 471Q325 455 320 436T305 395T283 353T256 316T225
290T193 280Q182 280 178 288T173 307Z" />
<glyph unicode="&#xb4;" glyph-name="acute" horiz-adv-x="514" d="M319 740L211 580Q199 566 187 568T169 579T162 603T172 632Q175 635 178 640T183 648Q193 664 206 684T233 721T260 752T286 770T306 769T319 740Z" />
<glyph unicode="&#xb5;" glyph-name="mu" horiz-adv-x="514" d="M20 408Q20 414 20 429T21 462T21 493T22 514Q29 526 38 537T58 553T81 555T107 535V514Q106 509 103 491T96 450T89 410T85 386Q85 367 89 339T100 279T119 217T147 162T182 121T228 105Q260 105
284 122T327 166T356 227T375 295T385 362T388 418Q388 442 385 463T376 506T368 547T364 589Q364 608 377 616T408 624Q429 624 442 612T462 580T472 537T475 488T474 443T473 408V360Q473 331 473 297T474 223V148Q474 112 474 78T473 18Q472 -17 456 -21T409
-11Q404 -8 401 4T396 29T391 52T383 59Q374 53 355 43T313 23T269 6T236 -2Q202 -2 175 10T125 45Q120 50 118 54T115 61T112 69T107 81Q105 85 104 69T102 31T99 -14T92 -48Q87 -60 79 -64T63 -67T48 -61T40 -50Q32 -29 28 9T22 93T20 188T19 282T19 359T20 408Z"
/>
<glyph unicode="&#xb6;" glyph-name="paragraph" horiz-adv-x="715" d="M543 670Q543 677 534 677T510 675T475 673T435 681Q454 645 466 603T485 516T493 430T495 351V332Q493 319 489 295T481 241T471 180T462 118T454 64T447 28Q440 13 429 9T404 5T375 9T344
13Q344 67 351 108T366 189T382 269T390 364Q390 367 390 378T389 401T388 424T387 438Q360 409 340 391T301 365T260 354T209 351Q171 347 137 360T79 398T43 459T42 535Q42 586 54 631T94 710T162 764T261 784Q308 784 340 782T405 778T481 774T594 772Q607 772
616 750T630 695T639 621T643 544T645 482T648 449Q652 433 651 402T648 333T643 252T639 171T637 102T643 56Q643 54 644 51T645 45Q645 34 638 28T621 17T599 12T579 11Q575 11 568 12T558 13Q557 94 555 181T549 354T545 520T543 670Z" />
<glyph unicode="&#xb7;" glyph-name="middot" horiz-adv-x="310" d="M85 270Q85 286 97 300T127 324T163 341T194 347Q223 347 231 330T239 287Q239 268 231 254T210 232T178 219T141 215Q138 215 135 216Q132 216 130 217Q127 218 121 223T108 236T95 249T87
259Q86 261 86 264Q85 266 85 270Z" />
<glyph unicode="&#xb8;" glyph-name="cedilla" horiz-adv-x="493" d="M166 -364Q181 -353 204 -339T250 -309T296 -277T330 -245T342 -215T324 -188Q276 -188 234 -190T159 -182T107 -137T87 -33Q85 6 93 24T113 46T140 40T164 18T178 -10T174 -35Q174 -67 185
-82T214 -104T255 -109T303 -106T351 -104T393 -113T422 -142T434 -199Q434 -223 410 -258T351 -328T274 -386T200 -410Q179 -410 173 -395T166 -364Z" />
<glyph unicode="&#xb9;" glyph-name="onesuperior" horiz-adv-x="184" d="M26 656Q26 662 26 674T29 699T39 721T63 730Q72 730 77 719T87 692T92 656T95 619T96 588T99 572Q101 564 106 549T119 513T134 472T149 431T162 396T172 373Q172 372 172 370T173 367Q173
362 168 359T156 354T142 352T128 351Q125 351 120 351T114 352Q99 386 84 424T55 501T34 579T26 656Z" />
<glyph unicode="&#xba;" glyph-name="ordmasculine" horiz-adv-x="383" d="M16 456Q16 499 35 536T87 601T159 643T240 658Q263 658 281 643T311 606T329 560T336 517Q336 477 318 441T271 376T206 331T133 313Q101 313 79 324T43 355T23 400T16 456ZM74 449Q74
431 77 417T87 394T108 379T140 373Q164 373 189 387T234 424T266 472T278 524Q278 535 276 548T270 573T256 592T234 600Q222 600 206 592T171 570T136 540T105 506T82 474T74 449Z" />
<glyph unicode="&#xbb;" glyph-name="guillemotright" horiz-adv-x="763" d="M85 43Q85 59 99 85T135 140T182 201T232 261T274 311T300 343Q300 345 301 348T302 354L301 359Q300 361 300 364Q298 368 290 376T278 386Q272 390 254 401T212 428T161 461T109 493T67
520T42 535Q27 545 22 556T16 585Q43 585 86 577T178 554T275 519T363 476T427 426T452 375Q452 373 451 370T450 364L423 331Q405 310 382 282T334 224T285 166T242 117T214 85Q199 68 190 56T174 36T157 24T130 20Q126 20 119 20T104 23T91 29T85 43ZM344 84Q344
100 358 125T393 181T440 242T490 302T532 351T558 383Q558 385 559 388T561 394Q561 395 559 400Q558 403 558 405Q556 409 548 417T536 427Q530 430 512 441T470 468T418 501T367 534T325 561T301 576Q284 586 279 596T274 625Q302 625 345 617T436 594T532 560T620
516T684 468T709 416Q709 414 708 411T707 405Q699 394 681 372T639 323T591 265T542 207T500 158T472 126Q456 109 447 97T431 77T414 64T389 60Q384 60 377 60T362 63T350 70T344 84Z" />
<glyph unicode="&#xbc;" glyph-name="onequarter" horiz-adv-x="837" d="M18 700Q18 709 18 725T21 756T33 784T57 796Q67 796 73 782T82 747T88 701T91 653T93 614T95 593Q97 583 103 563T116 518T131 466T147 413T161 368T172 339Q172 337 172 335T173 331Q173
324 168 320T155 314T140 312T126 311Q123 311 118 311T111 312Q96 356 79 404T49 503T27 603T18 700ZM196 73Q197 82 201 103T209 150T216 196T221 226Q228 259 240 319T269 447T310 584T361 706T422 787T493 800Q481 733 463 673T423 556T380 443T337 328T299
208T273 73Q268 38 256 33T228 34Q217 37 208 44T196 73ZM377 192Q377 217 387 252T415 326T458 401T512 469T573 518T638 537Q645 537 657 537T680 534T701 528T710 514Q710 513 708 510Q708 508 708 507Q706 505 702 501T694 492T684 483T677 478Q677 473 677
462T676 437T676 412T676 395Q676 374 676 355T676 317T681 280T692 241Q694 241 698 241T708 240T717 240T724 240Q733 240 742 240T760 242T775 251T786 269Q808 261 813 250T818 221Q818 202 809 192T784 177T748 172T708 171Q710 165 714 149T724 115T733 81T739
59Q739 58 739 52T740 43Q740 25 729 21T700 16Q697 16 688 16T677 17Q676 25 672 43T663 81T653 118T645 143Q643 148 639 156T628 173T615 186T599 192H377ZM599 450Q576 436 551 413T505 364T470 309T456 255H615Q615 275 613 304T609 363T603 416T599 450Z"
/>
<glyph unicode="&#xbd;" glyph-name="onehalf" horiz-adv-x="793" d="M85 670Q85 678 85 694T88 726T99 755T123 767Q132 767 138 753T148 717T153 670T156 621T157 582T160 561Q162 551 168 531T181 485T196 431T211 378T225 332T235 302Q235 301 235 299T236
295Q236 288 231 284T219 277T204 275T190 274Q187 274 182 274T175 275Q161 319 145 368T115 469T94 571T85 670ZM213 17Q214 26 217 48T222 95T227 141T231 172Q235 206 243 267T264 397T291 537T326 661T367 742T416 756Q408 687 395 627T368 508T339 392T309
276T284 153T266 17Q263 -19 255 -24T236 -24Q228 -20 222 -13T213 17ZM478 102Q478 138 484 172T499 241T513 312T520 384Q520 389 520 401T519 426T519 451T519 467Q518 470 513 475T506 481H499Q479 481 466 472T443 450T425 420T408 390T387 367T357 357Q357
391 368 423T399 481T448 522T511 538Q525 538 534 537T550 531T561 518T571 494Q571 489 571 476T571 448T572 418T573 399Q573 365 569 332T560 267T551 203T547 137H558L703 205Q703 205 705 205T710 206T716 206T720 207Q726 207 732 206T743 204T752 198T756
185Q756 171 748 164T729 152T707 144T689 137Q683 133 671 127T643 112T610 95T578 78T551 64T532 54Q531 54 528 54T522 54T516 54T512 53Q500 53 493 56T483 65T479 80T478 102Z" />
<glyph unicode="&#xbe;" glyph-name="threequarters" horiz-adv-x="948" d="M179 379Q179 381 180 385T181 392Q195 401 213 417T247 452T273 491T284 533Q284 534 284 535T283 538Q283 538 283 539Q281 542 276 547T264 558T252 569T245 577Q243 577 242 578Q240
578 240 578T237 578Q226 578 211 569T182 549T156 528T142 515Q140 514 139 514Q137 513 135 513Q133 513 132 514Q130 514 129 515Q127 516 122 521T116 528V533V539Q121 554 129 576T145 622T160 670T167 713Q167 727 166 740T160 765T146 782T121 788Q100 788
84 777T57 749T42 713T39 676H13Q13 676 11 682T7 695T3 711T0 725V738Q0 758 12 776T42 808T80 830T119 838Q147 838 165 829T195 804T212 768T220 726T221 681T218 639Q243 635 264 628T301 608T326 577T336 532Q336 518 331 500T315 461T292 422T264 388T233
363T199 354Q188 354 184 362T179 379ZM320 60Q322 69 325 92T331 141T336 190T341 222Q346 258 355 322T379 458T411 605T451 735T500 821T556 835Q547 763 532 700T500 575T466 453T432 332T403 203T381 60Q378 22 369 17T346 17Q337 21 330 29T320 60ZM461 181Q461
206 471 241T499 315T541 390T593 458T652 507T715 526Q723 526 734 526T757 523T777 517T786 503Q786 502 784 499Q783 497 783 496Q782 494 778 490T770 481T760 472T754 467Q754 462 754 451T753 426T753 401T752 384Q752 363 752 344T753 306T757 269T768 230Q770
230 774 230T783 229T792 229T799 229Q808 229 817 229T835 231T849 240T860 258Q882 250 886 239T891 210Q891 191 882 181T858 166T823 161T783 160Q786 154 790 138T800 104T808 70T814 48Q814 47 814 41T815 32Q815 14 805 10T776 5Q774 5 765 5T754 6Q752
14 748 32T740 70T730 107T723 132Q720 137 716 145T706 162T693 175T678 181H461ZM678 439Q655 425 631 402T586 353T552 298T538 244H694Q694 264 692 293T687 352T681 405T678 439Z" />
<glyph unicode="&#xbf;" glyph-name="questiondown" horiz-adv-x="447" d="M196 764Q196 753 185 738T159 711T125 690T91 681Q88 681 78 689T62 702Q60 705 56 711T47 724T41 736T38 743Q38 761 44 770T60 783T83 787T111 787Q115 787 129 787T158 787T185 781T196
764ZM278 389Q278 354 261 323T223 263T184 204T166 138Q166 125 175 114T198 95T229 82T262 77Q286 77 306 86T344 109T376 137T407 161Q409 163 423 165T441 167Q441 129 428 97T390 42T325 6T236 -8Q202 -8 166 5T101 38T54 85T35 140Q35 175 47 203T75 257T108
305T137 353T152 407T143 473Q145 476 152 479T168 486T184 491T196 494Q223 494 239 483T264 456T276 422T278 389Z" />
<glyph unicode="&#xc0;" glyph-name="Agrave" horiz-adv-x="686" d="M236 878Q242 896 253 899T280 902Q303 902 331 872T390 790T450 673T509 537T563 396T606 268T635 166T645 107Q645 91 638 77T611 62Q599 62 591 69T576 88T565 110T556 129Q552 140 540 171T514
236T488 300T471 343Q401 355 331 365T182 386H171Q135 231 108 141T62 13T33 -19T19 27T19 133T36 278T67 445T110 613T167 763T236 878ZM212 526Q212 489 236 472T294 449T365 445T430 446Q430 486 417 532T384 625T342 714T300 793Q289 782 277 753T252 687T229
615T214 558Q214 555 213 543T212 526ZM221 1082Q225 1102 234 1107T254 1109T279 1093T307 1064T334 1030T357 996Q358 995 361 990T368 982Q379 969 379 956T372 933T353 923T329 934L221 1082Z" />
<glyph unicode="&#xc1;" glyph-name="Aacute" horiz-adv-x="686" d="M236 878Q242 896 253 899T280 902Q303 902 331 872T390 790T450 673T509 537T563 396T606 268T635 166T645 107Q645 91 638 77T611 62Q599 62 591 69T576 88T565 110T556 129Q552 140 540 171T514
236T488 300T471 343Q401 355 331 365T182 386H171Q135 231 108 141T62 13T33 -19T19 27T19 133T36 278T67 445T110 613T167 763T236 878ZM212 526Q212 489 236 472T294 449T365 445T430 446Q430 486 417 532T384 625T342 714T300 793Q289 782 277 753T252 687T229
615T214 558Q214 555 213 543T212 526ZM341 1117L233 957Q221 943 209 945T191 956T184 980T194 1009Q197 1012 200 1017T205 1025Q215 1041 228 1061T255 1098T282 1129T308 1147T328 1146T341 1117Z" />
<glyph unicode="&#xc2;" glyph-name="Acircumflex" horiz-adv-x="686" d="M236 878Q242 896 253 899T280 902Q303 902 331 872T390 790T450 673T509 537T563 396T606 268T635 166T645 107Q645 91 638 77T611 62Q599 62 591 69T576 88T565 110T556 129Q552 140
540 171T514 236T488 300T471 343Q401 355 331 365T182 386H171Q135 231 108 141T62 13T33 -19T19 27T19 133T36 278T67 445T110 613T167 763T236 878ZM212 526Q212 489 236 472T294 449T365 445T430 446Q430 486 417 532T384 625T342 714T300 793Q289 782 277
753T252 687T229 615T214 558Q214 555 213 543T212 526ZM258 1274Q278 1263 299 1242T341 1195T383 1139T423 1082T458 1032T486 997Q485 995 480 989T468 977T454 963T443 953Q440 953 439 953Q436 952 433 952Q429 952 426 953Q423 953 422 953Q392 973 376 1000T346
1052T314 1094T263 1111Q242 1060 230 1028T210 978T195 953T177 944T146 945T94 947Q94 966 100 995T118 1057T145 1125T179 1190T217 1242T258 1274Z" />
<glyph unicode="&#xc3;" glyph-name="Atilde" horiz-adv-x="686" d="M236 878Q242 896 253 899T280 902Q303 902 331 872T390 790T450 673T509 537T563 396T606 268T635 166T645 107Q645 91 638 77T611 62Q599 62 591 69T576 88T565 110T556 129Q552 140 540 171T514
236T488 300T471 343Q401 355 331 365T182 386H171Q135 231 108 141T62 13T33 -19T19 27T19 133T36 278T67 445T110 613T167 763T236 878ZM212 526Q212 489 236 472T294 449T365 445T430 446Q430 486 417 532T384 625T342 714T300 793Q289 782 277 753T252 687T229
615T214 558Q214 555 213 543T212 526ZM60 985Q60 1018 66 1054T88 1121T132 1172T206 1192Q238 1192 261 1178T303 1142T338 1095T372 1047T411 1011T462 997Q496 997 511 1007T532 1033T536 1070T534 1109T538 1144T560 1169H580Q583 1168 589 1166T602 1160T615
1154T624 1149Q624 1145 624 1138T625 1122T625 1105T626 1095Q626 1007 580 958T448 908Q415 908 391 921T349 954T315 997T284 1040T250 1073T206 1087Q174 1087 161 1075T142 1043T137 1001T134 956T122 917T89 891L66 912Q66 915 65 924T63 944L61 967Q60 979
60 985Z" />
<glyph unicode="&#xc4;" glyph-name="Adieresis" horiz-adv-x="686" d="M236 878Q242 896 253 899T280 902Q303 902 331 872T390 790T450 673T509 537T563 396T606 268T635 166T645 107Q645 91 638 77T611 62Q599 62 591 69T576 88T565 110T556 129Q552 140 540
171T514 236T488 300T471 343Q401 355 331 365T182 386H171Q135 231 108 141T62 13T33 -19T19 27T19 133T36 278T67 445T110 613T167 763T236 878ZM212 526Q212 489 236 472T294 449T365 445T430 446Q430 486 417 532T384 625T342 714T300 793Q289 782 277 753T252
687T229 615T214 558Q214 555 213 543T212 526ZM171 1077Q216 1077 216 1030Q205 1001 189 991T157 984T131 999T118 1026T129 1055T171 1077ZM398 1077Q443 1077 443 1030Q431 1001 415 991T384 984T357 999T345 1026T355 1055T398 1077Z" />
<glyph unicode="&#xc5;" glyph-name="Aring" horiz-adv-x="686" d="M148 985Q148 1020 165 1049T211 1100T275 1134T349 1147Q369 1147 385 1135T412 1105T429 1068T435 1032Q435 1001 419 972T376 919Q351 896 319 883Q325 877 331 871Q360 841 390 790T450 673T509
537T563 396T606 268T635 166T645 107Q645 91 638 77T611 62Q599 62 591 69T576 88T565 110T556 129Q552 140 540 171T514 236T488 300T471 343Q401 355 331 365T182 386H171Q135 231 108 141T62 13T33 -19T19 27T19 133T36 278T67 445T110 613T167 763Q195 827
229 869Q214 872 203 877Q184 886 171 902T153 939T148 985ZM212 526Q212 489 236 472T294 449T365 445T430 446Q430 486 417 532T384 625T342 714T300 793Q289 782 277 753T252 687T229 615T214 558Q214 555 213 543T212 526ZM222 983Q222 968 223 958T228 941T241
931T269 927Q313 927 340 951T367 1016Q367 1025 365 1037T359 1060T346 1079T325 1087Q309 1087 291 1076T258 1047T232 1012T222 983Z" />
<glyph unicode="&#xc6;" glyph-name="AE" horiz-adv-x="935" d="M250 883Q281 905 307 893T356 843Q372 850 388 854T414 859H435Q459 857 492 853T562 844T633 833T697 824T745 816T769 813Q778 812 790 809T815 801T839 788T855 769Q847 753 841 745T829 732T814
728T796 727Q753 727 711 730L542 742Q499 746 456 746Q456 727 452 692T445 616T447 537T469 470Q504 490 542 491T619 493H662Q688 493 712 487T754 467T771 425Q771 405 763 395T726 384Q724 384 715 387T694 395T674 402T662 406Q661 406 655 406T639 407T622
407T608 408Q585 408 564 405T527 392T501 365T491 321Q491 311 493 290T498 243T508 188T525 136T547 97T577 82Q580 82 588 83T598 84Q631 106 665 133T737 184T814 224T897 240V192Q897 187 878 170T828 128T757 76T679 27T605 -10T544 -25Q508 -25 480 9T431
101Q431 76 430 54T427 13Q404 13 389 17T367 38Q364 46 364 69T366 124T372 190T377 256T380 311T377 343Q342 348 324 354T291 367T255 379T195 391H185Q149 236 122 146T76 18T47 -14T33 32T34 137T50 283T81 449T124 617T180 768T250 883ZM228 562Q206 533
207 511T225 475T271 454T337 446Q337 486 339 533T340 627T332 719T305 799Q294 788 283 758T261 692T241 620T228 562Z" />
<glyph unicode="&#xc7;" glyph-name="Ccedilla" horiz-adv-x="643" d="M287 -344Q302 -333 325 -319T372 -289T417 -257T451 -225T463 -195T445 -168Q398 -168 355 -170T280 -162T228 -117T209 -14Q206 16 211 34Q163 57 125 92Q76 137 48 200T20 343Q20 377 29
417T56 497T97 576T151 644T216 691T290 709Q322 709 350 701T398 675T429 633T441 572Q419 572 406 583T381 609T356 634T321 645Q290 645 262 629T209 586T166 525T134 457T113 389T105 332Q105 280 120 235T165 156T237 103T335 84Q370 84 401 94T462 117T521
141T579 152Q583 152 590 152T604 149T616 143T621 129Q621 93 594 68T528 28T449 5T382 -2Q339 -2 301 5Q302 -6 295 -15Q295 -47 306 -62T336 -84T377 -89T425 -87T473 -85T515 -94T544 -122T555 -179Q555 -203 532 -239T472 -308T396 -366T321 -390Q301 -390
294 -375T287 -344Z" />
<glyph unicode="&#xc8;" glyph-name="Egrave" horiz-adv-x="664" d="M65 793Q60 793 51 795T31 801T12 808T0 814Q-1 816 -1 818Q-2 820 -2 823Q-2 837 9 847T34 863T63 873T85 878H97H107Q131 876 168 872T246 864T330 855T407 846T465 839T493 836Q501 835 513
833T539 825T563 812T579 793Q571 777 565 769T552 756T538 751T519 751Q477 751 435 754T350 760T266 766T180 769Q180 751 176 715T169 639T170 560T193 493Q228 514 266 515T343 516Q360 516 386 516T436 510T478 490T495 448Q495 428 487 418T450 408Q447 408
438 411T418 418T398 425T386 428Q385 428 379 428T363 429T346 429T332 430Q309 430 288 427T250 415T225 389T215 345Q215 336 217 314T222 266T232 211T248 160T270 121T301 105Q303 105 311 106T321 107Q355 130 389 157T461 207T538 247T621 264V215Q621 211
602 193T551 151T480 100T402 51T328 13T268 -2Q234 -2 208 28T160 109T125 226T101 362T84 501T73 630T68 732T65 793ZM202 1072Q206 1092 215 1097T235 1099T260 1083T288 1054T315 1020T338 986Q339 985 342 980T349 972Q360 959 360 946T353 923T334 913T310
924L202 1072Z" />
<glyph unicode="&#xc9;" glyph-name="Eacute" horiz-adv-x="664" d="M65 793Q60 793 51 795T31 801T12 808T0 814Q-1 816 -1 818Q-2 820 -2 823Q-2 837 9 847T34 863T63 873T85 878H97H107Q131 876 168 872T246 864T330 855T407 846T465 839T493 836Q501 835 513
833T539 825T563 812T579 793Q571 777 565 769T552 756T538 751T519 751Q477 751 435 754T350 760T266 766T180 769Q180 751 176 715T169 639T170 560T193 493Q228 514 266 515T343 516Q360 516 386 516T436 510T478 490T495 448Q495 428 487 418T450 408Q447 408
438 411T418 418T398 425T386 428Q385 428 379 428T363 429T346 429T332 430Q309 430 288 427T250 415T225 389T215 345Q215 336 217 314T222 266T232 211T248 160T270 121T301 105Q303 105 311 106T321 107Q355 130 389 157T461 207T538 247T621 264V215Q621 211
602 193T551 151T480 100T402 51T328 13T268 -2Q234 -2 208 28T160 109T125 226T101 362T84 501T73 630T68 732T65 793ZM377 1075L269 915Q257 901 245 903T227 914T220 938T230 967Q233 970 236 975T241 983Q251 999 264 1019T291 1056T318 1087T344 1105T364
1104T377 1075Z" />
<glyph unicode="&#xca;" glyph-name="Ecircumflex" horiz-adv-x="664" d="M65 793Q60 793 51 795T31 801T12 808T0 814Q-1 816 -1 818Q-2 820 -2 823Q-2 837 9 847T34 863T63 873T85 878H97H107Q131 876 168 872T246 864T330 855T407 846T465 839T493 836Q501
835 513 833T539 825T563 812T579 793Q571 777 565 769T552 756T538 751T519 751Q477 751 435 754T350 760T266 766T180 769Q180 751 176 715T169 639T170 560T193 493Q228 514 266 515T343 516Q360 516 386 516T436 510T478 490T495 448Q495 428 487 418T450 408Q447
408 438 411T418 418T398 425T386 428Q385 428 379 428T363 429T346 429T332 430Q309 430 288 427T250 415T225 389T215 345Q215 336 217 314T222 266T232 211T248 160T270 121T301 105Q303 105 311 106T321 107Q355 130 389 157T461 207T538 247T621 264V215Q621
211 602 193T551 151T480 100T402 51T328 13T268 -2Q234 -2 208 28T160 109T125 226T101 362T84 501T73 630T68 732T65 793ZM304 1260Q324 1249 345 1228T387 1181T429 1125T469 1068T504 1018T532 983Q531 981 526 975T514 963T500 949T489 939Q486 939 485 939Q482
938 479 938Q475 938 472 939Q469 939 468 939Q438 959 422 986T392 1038T360 1080T309 1097Q288 1046 276 1014T256 964T241 939T223 930T192 931T140 933Q140 952 146 981T164 1043T191 1111T225 1176T263 1228T304 1260Z" />
<glyph unicode="&#xcb;" glyph-name="Edieresis" horiz-adv-x="664" d="M65 793Q60 793 51 795T31 801T12 808T0 814Q-1 816 -1 818Q-2 820 -2 823Q-2 837 9 847T34 863T63 873T85 878H97H107Q131 876 168 872T246 864T330 855T407 846T465 839T493 836Q501 835
513 833T539 825T563 812T579 793Q571 777 565 769T552 756T538 751T519 751Q477 751 435 754T350 760T266 766T180 769Q180 751 176 715T169 639T170 560T193 493Q228 514 266 515T343 516Q360 516 386 516T436 510T478 490T495 448Q495 428 487 418T450 408Q447
408 438 411T418 418T398 425T386 428Q385 428 379 428T363 429T346 429T332 430Q309 430 288 427T250 415T225 389T215 345Q215 336 217 314T222 266T232 211T248 160T270 121T301 105Q303 105 311 106T321 107Q355 130 389 157T461 207T538 247T621 264V215Q621
211 602 193T551 151T480 100T402 51T328 13T268 -2Q234 -2 208 28T160 109T125 226T101 362T84 501T73 630T68 732T65 793ZM207 1021Q252 1021 252 974Q241 945 225 935T193 928T167 943T154 970T165 999T207 1021ZM434 1021Q479 1021 479 974Q467 945 451 935T420
928T393 943T381 970T391 999T434 1021Z" />
<glyph unicode="&#xcc;" glyph-name="Igrave" horiz-adv-x="771" d="M321 139Q321 192 308 254T280 381T251 510T236 632H13Q13 640 13 655T16 685T25 713T43 729H593Q592 697 580 680T549 654T505 643T457 637T410 630T371 612T346 577T341 516Q341 495 344 461T354
386T372 306T399 232T437 178T488 157Q508 155 539 156T603 159T663 158T705 146T711 117T667 64Q603 40 538 32T406 23T274 24T143 27Q106 72 99 96T104 129T144 139T204 138T268 134T321 139ZM297 950Q301 970 310 975T330 977T355 961T383 932T410 898T433 864Q434
863 437 858T444 850Q455 837 455 824T448 801T429 791T405 802L297 950Z" />
<glyph unicode="&#xcd;" glyph-name="Iacute" horiz-adv-x="771" d="M321 139Q321 192 308 254T280 381T251 510T236 632H13Q13 640 13 655T16 685T25 713T43 729H593Q592 697 580 680T549 654T505 643T457 637T410 630T371 612T346 577T341 516Q341 495 344 461T354
386T372 306T399 232T437 178T488 157Q508 155 539 156T603 159T663 158T705 146T711 117T667 64Q603 40 538 32T406 23T274 24T143 27Q106 72 99 96T104 129T144 139T204 138T268 134T321 139ZM473 933L365 773Q353 759 341 761T323 772T316 796T326 825Q329 828
332 833T337 841Q347 857 360 877T387 914T414 945T440 963T460 962T473 933Z" />
<glyph unicode="&#xce;" glyph-name="Icircumflex" horiz-adv-x="771" d="M321 139Q321 192 308 254T280 381T251 510T236 632H13Q13 640 13 655T16 685T25 713T43 729H593Q592 697 580 680T549 654T505 643T457 637T410 630T371 612T346 577T341 516Q341 495
344 461T354 386T372 306T399 232T437 178T488 157Q508 155 539 156T603 159T663 158T705 146T711 117T667 64Q603 40 538 32T406 23T274 24T143 27Q106 72 99 96T104 129T144 139T204 138T268 134T321 139ZM353 1175Q373 1164 394 1143T436 1096T478 1040T518
983T553 933T581 898Q580 896 575 890T563 878T549 864T538 854Q535 854 534 854Q531 853 528 853Q524 853 521 854Q518 854 517 854Q487 874 471 901T441 953T409 995T358 1012Q337 961 325 929T305 879T290 854T272 845T241 846T189 848Q189 867 195 896T213
958T240 1026T274 1091T312 1143T353 1175Z" />
<glyph unicode="&#xcf;" glyph-name="Idieresis" horiz-adv-x="771" d="M321 139Q321 192 308 254T280 381T251 510T236 632H13Q13 640 13 655T16 685T25 713T43 729H593Q592 697 580 680T549 654T505 643T457 637T410 630T371 612T346 577T341 516Q341 495 344
461T354 386T372 306T399 232T437 178T488 157Q508 155 539 156T603 159T663 158T705 146T711 117T667 64Q603 40 538 32T406 23T274 24T143 27Q106 72 99 96T104 129T144 139T204 138T268 134T321 139ZM227 916Q272 916 272 869Q261 840 245 830T213 823T187 838T174
865T185 894T227 916ZM454 916Q499 916 499 869Q487 840 471 830T440 823T413 838T401 865T411 894T454 916Z" />
<glyph unicode="&#xd0;" glyph-name="Eth" horiz-adv-x="509" d="M9 329Q9 330 8 339T5 358T2 377T0 387Q24 380 56 384Q66 386 76 388L66 431Q51 489 40 538T23 624T16 678Q16 720 41 747T102 789T181 810T257 816Q322 816 366 791T438 723T478 626T490 514Q490
476 482 425T459 319T420 211T365 115T295 46T210 20Q202 20 189 44T160 110T129 204T96 316L91 332H85Q52 328 30 328T9 329ZM101 621Q101 589 105 548T119 463Q126 431 135 399Q160 402 183 405Q213 408 234 396Q255 385 247 375T212 356Q188 348 154 342Q165
316 176 291Q195 252 219 221T274 171Q307 219 331 257T372 333T397 414T405 514Q405 555 400 594T378 663T332 712T253 731Q212 731 175 719T103 686Q103 683 103 674T102 655T102 635T101 621Z" />
<glyph unicode="&#xd1;" glyph-name="Ntilde" horiz-adv-x="686" d="M318 250Q314 266 308 296T294 362T279 437T266 514T257 583T253 635Q253 644 255 666T261 712T268 757T275 786Q278 787 285 787T301 788T317 789T328 790Q376 790 419 771T501 723T577 658T651
588T728 527T811 485Q811 490 811 500T812 523T812 545T813 561Q813 624 805 684T787 804T769 924T761 1049Q768 1049 778 1049T800 1046T820 1038T832 1021Q836 949 850 877T879 732T905 587T917 443Q917 430 917 415T913 387T901 364T877 355Q825 355 781 378T696
437T615 514T534 591T448 650T352 674Q352 618 360 567T377 464T395 363T403 260Q403 241 390 234T360 227Q347 227 336 229T318 250ZM-4 905Q-4 938 2 974T24 1041T68 1092T142 1112Q174 1112 197 1098T239 1062T274 1015T308 967T347 931T398 917Q432 917 447
927T468 953T472 990T470 1029T474 1064T496 1089H516Q519 1088 525 1086T538 1080T551 1074T560 1069Q560 1065 560 1058T561 1042T561 1025T562 1015Q562 927 516 878T384 828Q351 828 327 841T285 874T251 917T220 960T186 993T142 1007Q110 1007 97 995T78
963T73 921T70 876T58 837T25 811L2 832Q2 835 1 844T-1 864L-3 887Q-4 899 -4 905Z" />
<glyph unicode="&#xd2;" glyph-name="Ograve" horiz-adv-x="643" d="M0 278Q0 329 13 381T51 482T111 571T188 643T281 691T386 709Q441 709 481 688T549 630T589 548T602 453Q602 369 577 288T503 142T382 38T215 -2Q159 -2 119 23T52 89T13 179T0 278ZM85 256Q85
229 94 199T119 144T159 102T215 85Q282 85 337 115T432 194T494 303T516 422Q516 456 514 492T501 557T467 605T399 624Q385 624 362 623T315 618T275 604T257 579Q257 577 260 571T268 557T275 544T278 535Q278 533 270 525T257 514Q207 501 174 482T121 431T93
357T85 256ZM233 950Q237 970 246 975T266 977T291 961T319 932T346 898T369 864Q370 863 373 858T380 850Q391 837 391 824T384 801T365 791T341 802L233 950Z" />
<glyph unicode="&#xd3;" glyph-name="Oacute" horiz-adv-x="643" d="M0 278Q0 329 13 381T51 482T111 571T188 643T281 691T386 709Q441 709 481 688T549 630T589 548T602 453Q602 369 577 288T503 142T382 38T215 -2Q159 -2 119 23T52 89T13 179T0 278ZM85 256Q85
229 94 199T119 144T159 102T215 85Q282 85 337 115T432 194T494 303T516 422Q516 456 514 492T501 557T467 605T399 624Q385 624 362 623T315 618T275 604T257 579Q257 577 260 571T268 557T275 544T278 535Q278 533 270 525T257 514Q207 501 174 482T121 431T93
357T85 256ZM409 933L301 773Q289 759 277 761T259 772T252 796T262 825Q265 828 268 833T273 841Q283 857 296 877T323 914T350 945T376 963T396 962T409 933Z" />
<glyph unicode="&#xd4;" glyph-name="Ocircumflex" horiz-adv-x="643" d="M0 278Q0 329 13 381T51 482T111 571T188 643T281 691T386 709Q441 709 481 688T549 630T589 548T602 453Q602 369 577 288T503 142T382 38T215 -2Q159 -2 119 23T52 89T13 179T0 278ZM85
256Q85 229 94 199T119 144T159 102T215 85Q282 85 337 115T432 194T494 303T516 422Q516 456 514 492T501 557T467 605T399 624Q385 624 362 623T315 618T275 604T257 579Q257 577 260 571T268 557T275 544T278 535Q278 533 270 525T257 514Q207 501 174 482T121
431T93 357T85 256ZM290 1175Q310 1164 331 1143T373 1096T415 1040T455 983T490 933T518 898Q517 896 512 890T500 878T486 864T475 854Q472 854 471 854Q468 853 465 853Q461 853 458 854Q455 854 454 854Q424 874 408 901T378 953T346 995T295 1012Q274 961
262 929T242 879T227 854T209 845T178 846T126 848Q126 867 132 896T150 958T177 1026T211 1091T249 1143T290 1175Z" />
<glyph unicode="&#xd5;" glyph-name="Otilde" horiz-adv-x="643" d="M0 278Q0 329 13 381T51 482T111 571T188 643T281 691T386 709Q441 709 481 688T549 630T589 548T602 453Q602 369 577 288T503 142T382 38T215 -2Q159 -2 119 23T52 89T13 179T0 278ZM85 256Q85
229 94 199T119 144T159 102T215 85Q282 85 337 115T432 194T494 303T516 422Q516 456 514 492T501 557T467 605T399 624Q385 624 362 623T315 618T275 604T257 579Q257 577 260 571T268 557T275 544T278 535Q278 533 270 525T257 514Q207 501 174 482T121 431T93
357T85 256ZM48 853Q48 886 54 922T76 989T120 1040T194 1060Q226 1060 249 1046T291 1010T326 963T360 915T399 879T450 865Q484 865 499 875T520 901T524 938T522 977T526 1012T548 1037H568Q571 1036 577 1034T590 1028T603 1022T612 1017Q612 1013 612 1006T613
990T613 973T614 963Q614 875 568 826T436 776Q403 776 379 789T337 822T303 865T272 908T238 941T194 955Q162 955 149 943T130 911T125 869T122 824T110 785T77 759L54 780Q54 783 53 792T51 812L49 835Q48 847 48 853Z" />
<glyph unicode="&#xd6;" glyph-name="Odieresis" horiz-adv-x="643" d="M0 278Q0 329 13 381T51 482T111 571T188 643T281 691T386 709Q441 709 481 688T549 630T589 548T602 453Q602 369 577 288T503 142T382 38T215 -2Q159 -2 119 23T52 89T13 179T0 278ZM85
256Q85 229 94 199T119 144T159 102T215 85Q282 85 337 115T432 194T494 303T516 422Q516 456 514 492T501 557T467 605T399 624Q385 624 362 623T315 618T275 604T257 579Q257 577 260 571T268 557T275 544T278 535Q278 533 270 525T257 514Q207 501 174 482T121
431T93 357T85 256ZM248 978Q293 978 293 931Q282 902 266 892T234 885T208 900T195 927T206 956T248 978ZM475 978Q520 978 520 931Q508 902 492 892T461 885T434 900T422 927T432 956T475 978Z" />
<glyph unicode="&#xd7;" glyph-name="multiply" horiz-adv-x="486" d="M105 463V465Q105 468 106 469Q109 479 119 480T141 476Q142 476 148 474Q150 473 152 472L225 388Q256 407 274 417T302 431T316 436T323 435Q332 433 344 429T357 413Q330 401 309 388T264
348Q274 337 288 320T317 282T345 240T366 202T375 173T366 162Q354 156 350 153T342 151T336 163T322 192T292 241T238 315L196 193Q195 192 187 190L174 188Q172 188 170 189H167L166 190Q166 190 165 190T162 191Q160 191 159 192Q157 195 153 200T148 206L189
346L105 463Z" />
<glyph unicode="&#xd8;" glyph-name="Oslash" horiz-adv-x="643" d="M0 278Q0 329 13 381T51 482T111 571T188 643T281 691T386 709H391Q404 726 418 739Q451 768 489 753Q482 721 475 690Q478 688 481 688Q522 666 549 630T589 548T602 453Q602 369 577 288T503
142T381 38Q330 10 270 2Q266 -30 256 -35Q244 -41 229 -36Q217 -32 208 -24Q200 -18 197 -1Q152 2 119 23Q78 49 52 89T13 179T0 278ZM85 256Q85 229 94 199T119 144T159 102Q181 86 209 85Q213 110 216 131T221 162Q228 196 239 257T268 389T309 531Q324 580
342 621Q328 620 315 617Q292 613 275 604T257 579Q257 577 260 571T268 557T275 544T278 535Q278 533 270 525T257 514Q207 501 174 482T121 431T93 357T85 256ZM337 115Q392 146 432 194T494 303T516 422Q516 456 514 492T501 557T466 605Q461 609 454 612Q437
555 418 501Q398 443 377 386T335 268T297 143Q292 120 285 94Q312 102 337 115Z" />
<glyph unicode="&#xd9;" glyph-name="Ugrave" horiz-adv-x="621" d="M43 686Q59 674 69 657T85 621Q86 583 86 530T90 420T105 307T139 205T202 133T302 105Q357 105 396 131T462 197T501 286T514 383Q514 474 505 568T472 751Q479 769 490 771T514 774Q540 774
555 753T577 700T586 629T587 556T583 495T580 461Q580 409 578 356T566 253T538 162T488 88T411 38T301 20Q220 20 168 51T85 133T38 251T16 386T7 522T0 643L43 686ZM222 950Q226 970 235 975T255 977T280 961T308 932T335 898T358 864Q359 863 362 858T369 850Q380
837 380 824T373 801T354 791T330 802L222 950Z" />
<glyph unicode="&#xda;" glyph-name="Uacute" horiz-adv-x="621" d="M43 686Q59 674 69 657T85 621Q86 583 86 530T90 420T105 307T139 205T202 133T302 105Q357 105 396 131T462 197T501 286T514 383Q514 474 505 568T472 751Q479 769 490 771T514 774Q540 774
555 753T577 700T586 629T587 556T583 495T580 461Q580 409 578 356T566 253T538 162T488 88T411 38T301 20Q220 20 168 51T85 133T38 251T16 386T7 522T0 643L43 686ZM398 933L290 773Q278 759 266 761T248 772T241 796T251 825Q254 828 257 833T262 841Q272 857
285 877T312 914T339 945T365 963T385 962T398 933Z" />
<glyph unicode="&#xdb;" glyph-name="Ucircumflex" horiz-adv-x="621" d="M43 686Q59 674 69 657T85 621Q86 583 86 530T90 420T105 307T139 205T202 133T302 105Q357 105 396 131T462 197T501 286T514 383Q514 474 505 568T472 751Q479 769 490 771T514 774Q540
774 555 753T577 700T586 629T587 556T583 495T580 461Q580 409 578 356T566 253T538 162T488 88T411 38T301 20Q220 20 168 51T85 133T38 251T16 386T7 522T0 643L43 686ZM278 1175Q298 1164 319 1143T361 1096T403 1040T443 983T478 933T506 898Q505 896 500
890T488 878T474 864T463 854Q460 854 459 854Q456 853 453 853Q449 853 446 854Q443 854 442 854Q412 874 396 901T366 953T334 995T283 1012Q262 961 250 929T230 879T215 854T197 845T166 846T114 848Q114 867 120 896T138 958T165 1026T199 1091T237 1143T278
1175Z" />
<glyph unicode="&#xdc;" glyph-name="Udieresis" horiz-adv-x="621" d="M43 686Q59 674 69 657T85 621Q86 583 86 530T90 420T105 307T139 205T202 133T302 105Q357 105 396 131T462 197T501 286T514 383Q514 474 505 568T472 751Q479 769 490 771T514 774Q540
774 555 753T577 700T586 629T587 556T583 495T580 461Q580 409 578 356T566 253T538 162T488 88T411 38T301 20Q220 20 168 51T85 133T38 251T16 386T7 522T0 643L43 686ZM237 978Q282 978 282 931Q271 902 255 892T223 885T197 900T184 927T195 956T237 978ZM464
978Q509 978 509 931Q497 902 481 892T450 885T423 900T411 927T421 956T464 978Z" />
<glyph unicode="&#xdd;" glyph-name="Yacute" horiz-adv-x="643" d="M592 745Q553 753 514 781T440 849T373 938T318 1037T282 1134T269 1218Q269 1223 269 1230T271 1243T278 1254T291 1259Q316 1259 334 1242T367 1195T395 1129T421 1054T450 979T483 913T526
867T581 849Q583 849 586 850T592 851Q620 876 642 917T684 1007T721 1106T758 1201T799 1278T849 1324L892 1280Q900 1272 895 1248T876 1187T842 1106T800 1013T756 918T717 828T688 753T677 701Q677 641 694 585T732 474T769 363T786 249Q786 241 786 229T783
205T770 188T742 187Q705 241 677 309T629 452T600 601T592 745ZM429 1225L321 1065Q309 1051 297 1053T279 1064T272 1088T282 1117Q285 1120 288 1125T293 1133Q303 1149 316 1169T343 1206T370 1237T396 1255T416 1254T429 1225Z" />
<glyph unicode="&#xde;" glyph-name="Thorn" horiz-adv-x="577" d="M88 280Q88 283 86 306T80 365T72 445T62 536T52 626T44 706T38 765T35 793Q45 812 67 829T112 846Q122 793 126 753T130 681T131 620T132 562T140 498T160 418Q162 443 162 471T167 528T182
585T212 633T263 666T343 678Q386 678 420 662T478 618T514 554T527 476Q527 421 500 369T428 274T329 207T217 181Q213 181 213 169T212 138T214 97T217 57T218 26T214 14Q210 15 195 14T164 13T133 13T114 14L88 280ZM354 589Q334 580 313 565T273 519T241 433T225
290Q227 290 235 289T246 287Q273 287 308 303T375 346T432 402T461 461Q463 478 454 500T428 542T391 575T354 589Z" />
<glyph unicode="&#xdf;" glyph-name="germandbls" horiz-adv-x="604" d="M109 -158Q97 -157 87 -123T69 -32T55 98T45 249T37 407T33 553T33 672T38 746Q52 805 85 836T158 878T243 880T325 847T390 787T422 708T409 615T336 516Q373 503 412 490T485 457T539
410T561 343Q561 316 548 286T513 226T461 165T401 109T339 62T280 27L262 156L298 180Q319 195 343 213T391 250T434 286T465 319T477 343Q477 386 452 413T390 449T307 445T221 397L218 501Q265 537 291 581T325 667T321 743T283 793T213 802T114 752Q121 708
119 656T115 541T112 405T118 247T144 67T200 -137L109 -158Z" />
<glyph unicode="&#xe0;" glyph-name="agrave" horiz-adv-x="621" d="M450 129Q412 103 385 83T331 48T276 27T203 20Q110 20 65 69T20 217Q20 255 30 296T59 377T106 454T167 519T239 563T321 580Q393 573 434 545T496 472T525 373T537 260T549 144T578 37Q565
4 554 -9T528 -14T496 30T450 129ZM105 215Q105 158 126 132T203 105Q244 105 281 119T347 159T392 221T409 301Q409 319 410 351T406 416T387 471T345 495Q293 495 249 469T173 401T123 311T105 215ZM217 799Q221 819 230 824T250 826T275 810T303 781T330 747T353
713Q354 712 357 707T364 699Q375 686 375 673T368 650T349 640T325 651L217 799Z" />
<glyph unicode="&#xe1;" glyph-name="aacute" horiz-adv-x="621" d="M450 129Q412 103 385 83T331 48T276 27T203 20Q110 20 65 69T20 217Q20 255 30 296T59 377T106 454T167 519T239 563T321 580Q393 573 434 545T496 472T525 373T537 260T549 144T578 37Q565
4 554 -9T528 -14T496 30T450 129ZM105 215Q105 158 126 132T203 105Q244 105 281 119T347 159T392 221T409 301Q409 319 410 351T406 416T387 471T345 495Q293 495 249 469T173 401T123 311T105 215ZM394 829L286 669Q274 655 262 657T244 668T237 692T247 721Q250
724 253 729T258 737Q268 753 281 773T308 810T335 841T361 859T381 858T394 829Z" />
<glyph unicode="&#xe2;" glyph-name="acircumflex" horiz-adv-x="621" d="M450 129Q412 103 385 83T331 48T276 27T203 20Q110 20 65 69T20 217Q20 255 30 296T59 377T106 454T167 519T239 563T321 580Q393 573 434 545T496 472T525 373T537 260T549 144T578 37Q565
4 554 -9T528 -14T496 30T450 129ZM105 215Q105 158 126 132T203 105Q244 105 281 119T347 159T392 221T409 301Q409 319 410 351T406 416T387 471T345 495Q293 495 249 469T173 401T123 311T105 215ZM278 982Q298 971 319 950T361 903T403 847T443 790T478 740T506
705Q505 703 500 697T488 685T474 671T463 661Q460 661 459 661Q456 660 453 660Q449 660 446 661Q443 661 442 661Q412 681 396 708T366 760T334 802T283 819Q262 768 250 736T230 686T215 661T197 652T166 653T114 655Q114 674 120 703T138 765T165 833T199 898T237
950T278 982Z" />
<glyph unicode="&#xe3;" glyph-name="atilde" horiz-adv-x="621" d="M450 129Q412 103 385 83T331 48T276 27T203 20Q110 20 65 69T20 217Q20 255 30 296T59 377T106 454T167 519T239 563T321 580Q393 573 434 545T496 472T525 373T537 260T549 144T578 37Q565
4 554 -9T528 -14T496 30T450 129ZM105 215Q105 158 126 132T203 105Q244 105 281 119T347 159T392 221T409 301Q409 319 410 351T406 416T387 471T345 495Q293 495 249 469T173 401T123 311T105 215ZM37 682Q37 715 43 751T65 818T109 869T183 889Q215 889 238
875T280 839T315 792T349 744T388 708T439 694Q473 694 488 704T509 730T513 767T511 806T515 841T537 866H557Q560 865 566 863T579 857T592 851T601 846Q601 842 601 835T602 819T602 802T603 792Q603 704 557 655T425 605Q392 605 368 618T326 651T292 694T261
737T227 770T183 784Q151 784 138 772T119 740T114 698T111 653T99 614T66 588L43 609Q43 612 42 621T40 641L38 664Q37 676 37 682Z" />
<glyph unicode="&#xe4;" glyph-name="adieresis" horiz-adv-x="621" d="M450 129Q412 103 385 83T331 48T276 27T203 20Q110 20 65 69T20 217Q20 255 30 296T59 377T106 454T167 519T239 563T321 580Q393 573 434 545T496 472T525 373T537 260T549 144T578 37Q565
4 554 -9T528 -14T496 30T450 129ZM105 215Q105 158 126 132T203 105Q244 105 281 119T347 159T392 221T409 301Q409 319 410 351T406 416T387 471T345 495Q293 495 249 469T173 401T123 311T105 215ZM493 785Q538 785 538 738Q527 709 511 699T479 692T453 707T440
734T451 763T493 785ZM720 785Q765 785 765 738Q753 709 737 699T706 692T679 707T667 734T677 763T720 785Z" />
<glyph unicode="&#xe5;" glyph-name="aring" horiz-adv-x="621" d="M162 679Q162 714 179 743T225 794T290 828T364 841Q383 841 399 829T426 799T443 762T449 726Q449 695 433 666T391 613Q366 592 337 579Q398 570 434 544Q475 516 496 472T525 373T537 260T549
144T578 37Q565 4 554 -9T528 -14T496 30T450 129Q412 103 385 83T331 48T276 27T203 20Q110 20 65 69T20 217Q20 255 30 296T59 377T106 454T167 519T239 563L240 564Q228 567 218 571Q198 580 186 596T168 633T162 679ZM105 215Q105 158 126 132T203 105Q244
105 281 119T347 159T392 221T409 301Q409 319 410 351T406 416T387 471T345 495Q293 495 249 469T173 401T123 311T105 215ZM237 677Q237 662 237 652T242 635T256 625T283 621Q328 621 355 645T382 710Q382 719 380 731T373 754T360 773T339 781Q323 781 305
770T272 741T247 706T237 677Z" />
<glyph unicode="&#xe6;" glyph-name="ae" horiz-adv-x="1005" d="M450 129Q412 103 385 83T331 48T276 27T203 20Q110 20 65 69T20 217Q20 255 30 296T59 377T106 454T167 519T239 563T321 580Q369 576 402 561T459 524T495 472T517 408Q529 442 548 471T594 523T656
558T734 571Q771 571 799 558T847 522T875 471T885 409Q885 358 861 310T798 226T708 171T604 162Q605 133 623 116T668 89T722 78T771 75Q794 75 814 79T855 88T895 97T938 101Q947 101 956 100T974 96T987 85T992 66Q992 47 978 35T943 13T895 0T844 -7T799 -10T769
-11Q704 -11 653 8T567 66Q571 51 578 37Q565 4 554 -9T528 -14T496 30T450 129ZM105 215Q105 158 126 132T203 105Q244 105 281 119T347 159T392 221T409 301Q409 319 410 351T406 416T387 471T345 495Q293 495 249 469T173 401T123 311T105 215ZM602 334Q602
316 604 304T611 283T628 271T657 267Q683 267 708 276T753 302T786 342T799 393Q799 408 796 424T786 453T765 475T733 484Q702 484 678 471T637 436T611 388T602 334Z" />
<glyph unicode="&#xe7;" glyph-name="ccedilla" horiz-adv-x="472" d="M230 -354Q246 -343 269 -329T315 -299T360 -268T394 -236T407 -205T389 -178Q357 -178 328 -179T272 -180T224 -171T186 -147T161 -100T152 -23Q151 -3 152 11Q116 27 88 61T40 138T11 223T0
301Q0 343 18 389T68 472T139 535T225 560Q248 560 271 552T312 529T342 493T354 446Q336 446 322 450T293 459T266 469T236 473Q195 473 170 453T129 401T109 335T103 268Q103 263 103 249T104 220T105 190T107 171Q118 147 128 134T151 115T177 107T210 105Q236
105 255 113T292 132T324 156T355 181T391 200T436 208Q436 165 422 129T382 67T320 24T242 2Q247 -14 238 -25Q238 -57 249 -72T278 -94T320 -99T368 -97T415 -95T457 -104T487 -132T499 -189Q499 -205 488 -226T458 -271T415 -317T365 -358T312 -387T265 -399Q244
-399 237 -385T230 -354Z" />
<glyph unicode="&#xe8;" glyph-name="egrave" horiz-adv-x="558" d="M20 278Q20 332 33 386T74 483T148 553T259 580Q296 580 324 567T371 531T399 480T409 418Q409 367 386 319T323 235T232 180T128 171Q129 142 147 125T192 98T246 87T296 84Q319 84 339 88T379
97T419 106T463 110Q472 110 481 109T498 105T511 94T516 75Q516 56 502 44T467 22T419 9T369 2T324 -1T293 -2Q229 -2 178 18T92 75T39 163T20 278ZM126 343Q126 308 135 292T182 276Q208 276 233 285T278 312T311 352T323 402Q323 417 321 433T310 462T290 484T257
493Q227 493 203 480T161 445T135 397T126 343ZM190 757Q194 777 203 782T223 784T248 768T276 739T303 705T326 671Q327 670 330 665T337 657Q348 644 348 631T341 608T322 598T298 609L190 757Z" />
<glyph unicode="&#xe9;" glyph-name="eacute" horiz-adv-x="558" d="M20 278Q20 332 33 386T74 483T148 553T259 580Q296 580 324 567T371 531T399 480T409 418Q409 367 386 319T323 235T232 180T128 171Q129 142 147 125T192 98T246 87T296 84Q319 84 339 88T379
97T419 106T463 110Q472 110 481 109T498 105T511 94T516 75Q516 56 502 44T467 22T419 9T369 2T324 -1T293 -2Q229 -2 178 18T92 75T39 163T20 278ZM126 343Q126 308 135 292T182 276Q208 276 233 285T278 312T311 352T323 402Q323 417 321 433T310 462T290 484T257
493Q227 493 203 480T161 445T135 397T126 343ZM544 763L436 603Q424 589 412 591T394 602T387 626T397 655Q400 658 403 663T408 671Q418 687 431 707T458 744T485 775T511 793T531 792T544 763Z" />
<glyph unicode="&#xea;" glyph-name="ecircumflex" horiz-adv-x="558" d="M20 278Q20 332 33 386T74 483T148 553T259 580Q296 580 324 567T371 531T399 480T409 418Q409 367 386 319T323 235T232 180T128 171Q129 142 147 125T192 98T246 87T296 84Q319 84 339
88T379 97T419 106T463 110Q472 110 481 109T498 105T511 94T516 75Q516 56 502 44T467 22T419 9T369 2T324 -1T293 -2Q229 -2 178 18T92 75T39 163T20 278ZM126 343Q126 308 135 292T182 276Q208 276 233 285T278 312T311 352T323 402Q323 417 321 433T310 462T290
484T257 493Q227 493 203 480T161 445T135 397T126 343ZM246 982Q266 971 287 950T329 903T371 847T411 790T446 740T474 705Q473 703 468 697T456 685T442 671T431 661Q428 661 427 661Q424 660 421 660Q417 660 414 661Q411 661 410 661Q380 681 364 708T334
760T302 802T251 819Q230 768 218 736T198 686T183 661T165 652T134 653T82 655Q82 674 88 703T106 765T133 833T167 898T205 950T246 982Z" />
<glyph unicode="&#xeb;" glyph-name="edieresis" horiz-adv-x="558" d="M20 278Q20 332 33 386T74 483T148 553T259 580Q296 580 324 567T371 531T399 480T409 418Q409 367 386 319T323 235T232 180T128 171Q129 142 147 125T192 98T246 87T296 84Q319 84 339
88T379 97T419 106T463 110Q472 110 481 109T498 105T511 94T516 75Q516 56 502 44T467 22T419 9T369 2T324 -1T293 -2Q229 -2 178 18T92 75T39 163T20 278ZM126 343Q126 308 135 292T182 276Q208 276 233 285T278 312T311 352T323 402Q323 417 321 433T310 462T290
484T257 493Q227 493 203 480T161 445T135 397T126 343ZM401 1005Q446 1005 446 958Q435 929 419 919T387 912T361 927T348 954T359 983T401 1005ZM628 1005Q673 1005 673 958Q661 929 645 919T614 912T587 927T575 954T585 983T628 1005Z" />
<glyph unicode="&#xec;" glyph-name="igrave" horiz-adv-x="236" d="M62 375Q62 381 62 394T63 423T64 452T65 472Q76 488 93 498T129 514Q132 460 146 399T176 277T204 155T217 43Q217 -2 171 -2Q143 -2 124 21T94 79T75 158T66 244T63 321T62 375ZM31 757Q34
777 43 782T64 784T89 768T116 739T143 705T166 671Q167 670 171 665T177 657Q188 644 188 631T181 608T162 598T138 609L31 757Z" />
<glyph unicode="&#xed;" glyph-name="iacute" horiz-adv-x="236" d="M62 375Q62 381 62 394T63 423T64 452T65 472Q76 488 93 498T129 514Q132 460 146 399T176 277T204 155T217 43Q217 -2 171 -2Q143 -2 124 21T94 79T75 158T66 244T63 321T62 375ZM206 740L97
580Q85 566 74 568T56 579T49 603T58 632Q61 635 64 640T69 648Q79 664 92 684T119 721T147 752T172 770T193 769T206 740Z" />
<glyph unicode="&#xee;" glyph-name="icircumflex" horiz-adv-x="236" d="M62 375Q62 381 62 394T63 423T64 452T65 472Q76 488 93 498T129 514Q132 460 146 399T176 277T204 155T217 43Q217 -2 171 -2Q143 -2 124 21T94 79T75 158T66 244T63 321T62 375ZM85 982Q105
971 126 950T169 903T211 847T251 790T286 740T314 705Q313 703 308 697T296 685T282 671T271 661Q268 661 266 661Q264 660 261 660Q257 660 255 661Q252 661 250 661Q220 681 204 708T175 760T143 802T91 819Q69 768 58 736T38 686T23 661T5 652T-26 653T-78
655Q-78 674 -72 703T-54 765T-27 833T7 898T45 950T85 982Z" />
<glyph unicode="&#xef;" glyph-name="idieresis" horiz-adv-x="236" d="M62 375Q62 381 62 394T63 423T64 452T65 472Q76 488 93 498T129 514Q132 460 146 399T176 277T204 155T217 43Q217 -2 171 -2Q143 -2 124 21T94 79T75 158T66 244T63 321T62 375ZM-4 752Q41
752 41 706Q30 677 14 667T-18 659T-44 674T-57 701T-46 730T-4 752ZM223 752Q268 752 268 706Q256 677 240 667T209 659T182 674T170 701T181 730T223 752Z" />
<glyph unicode="&#xf0;" glyph-name="eth" horiz-adv-x="472" d="M492 548Q492 527 484 513T447 500H414Q421 453 425 404T433 311T436 235T437 188Q437 182 437 169T436 141T436 113T436 94Q422 64 409 47T381 21T348 9T307 6Q258 6 212 29T129 89T70 173T47
271Q47 333 76 371T171 409Q193 409 213 403T252 389T291 376T330 369Q330 372 331 377T333 387T335 398T335 407Q333 414 326 441T311 503Q257 506 205 517T119 553Q119 579 126 584T151 589Q172 593 209 592T293 588Q285 619 280 643L273 676V697Q274 700 282
708T293 718Q295 718 298 719Q300 719 301 719T304 720Q320 720 334 709T360 680T381 635T398 579Q427 576 451 574T490 572Q490 570 491 561T492 548ZM337 198Q337 225 326 245T295 278T253 298T203 304H175Q162 304 151 301T134 288T128 260Q128 237 143 208T182
153T233 110T283 92Q301 92 311 104T327 134T335 169T337 198Z" />
<glyph unicode="&#xf1;" glyph-name="ntilde" horiz-adv-x="579" d="M20 337Q20 363 33 374T75 386H85Q88 370 92 349T104 306T123 266T150 236Q151 271 167 303T208 361T262 404T321 428H343Q391 428 425 407T481 351T516 272T534 183T542 95T544 22H471Q465
82 456 137Q453 159 448 183T437 229T424 269T408 301Q404 305 398 312T384 326T371 338T364 343Q334 351 312 332T273 279T246 204T228 124T218 57T214 22Q189 4 167 11T126 43T91 103T62 179T39 261T20 337ZM264 598Q264 631 270 667T292 734T336 785T410 805Q442
805 465 791T507 755T542 708T576 660T615 624T666 610Q700 610 715 620T736 646T740 683T738 722T742 757T764 782H784Q787 781 793 779T806 773T819 767T828 762Q828 758 828 751T829 735T829 718T830 708Q830 620 784 571T652 521Q619 521 595 534T553 567T519
610T488 653T454 686T410 700Q378 700 365 688T346 656T341 614T338 569T326 530T293 504L270 525Q270 528 269 537T267 557L265 580Q264 592 264 598Z" />
<glyph unicode="&#xf2;" glyph-name="ograve" horiz-adv-x="514" d="M20 203Q20 265 49 318T125 410T232 471T353 493Q387 493 413 471T458 418T485 351T495 290Q495 234 468 182T398 89T301 23T193 -2Q145 -2 112 14T59 58T30 123T20 203ZM105 193Q105 167 109
148T125 114T156 93T203 85Q240 85 277 105T343 157T391 227T409 301Q409 317 406 336T396 371T376 398T343 409Q325 409 301 397T250 366T198 323T151 275T118 229T105 193ZM169 757Q173 777 182 782T202 784T227 768T255 739T282 705T305 671Q306 670 309 665T316
657Q327 644 327 631T320 608T301 598T277 609L169 757Z" />
<glyph unicode="&#xf3;" glyph-name="oacute" horiz-adv-x="514" d="M20 203Q20 265 49 318T125 410T232 471T353 493Q387 493 413 471T458 418T485 351T495 290Q495 234 468 182T398 89T301 23T193 -2Q145 -2 112 14T59 58T30 123T20 203ZM105 193Q105 167 109
148T125 114T156 93T203 85Q240 85 277 105T343 157T391 227T409 301Q409 317 406 336T396 371T376 398T343 409Q325 409 301 397T250 366T198 323T151 275T118 229T105 193ZM345 740L237 580Q225 566 213 568T195 579T188 603T198 632Q201 635 204 640T209 648Q219
664 232 684T259 721T286 752T312 770T332 769T345 740Z" />
<glyph unicode="&#xf4;" glyph-name="ocircumflex" horiz-adv-x="514" d="M20 203Q20 265 49 318T125 410T232 471T353 493Q387 493 413 471T458 418T485 351T495 290Q495 234 468 182T398 89T301 23T193 -2Q145 -2 112 14T59 58T30 123T20 203ZM105 193Q105 167
109 148T125 114T156 93T203 85Q240 85 277 105T343 157T391 227T409 301Q409 317 406 336T396 371T376 398T343 409Q325 409 301 397T250 366T198 323T151 275T118 229T105 193ZM225 1136Q245 1125 266 1104T308 1057T350 1001T390 944T425 894T453 859Q452 857
447 851T435 839T421 825T410 815Q407 815 406 815Q403 814 400 814Q396 814 393 815Q390 815 389 815Q359 835 343 862T313 914T281 956T230 973Q209 922 197 890T177 840T162 815T144 806T113 807T61 809Q61 828 67 857T85 919T112 987T146 1052T184 1104T225
1136Z" />
<glyph unicode="&#xf5;" glyph-name="otilde" horiz-adv-x="514" d="M20 203Q20 265 49 318T125 410T232 471T353 493Q387 493 413 471T458 418T485 351T495 290Q495 234 468 182T398 89T301 23T193 -2Q145 -2 112 14T59 58T30 123T20 203ZM105 193Q105 167 109
148T125 114T156 93T203 85Q240 85 277 105T343 157T391 227T409 301Q409 317 406 336T396 371T376 398T343 409Q325 409 301 397T250 366T198 323T151 275T118 229T105 193ZM223 622Q223 655 229 691T251 758T295 809T369 829Q401 829 424 815T466 779T501 732T535
684T574 648T625 634Q659 634 674 644T695 670T699 707T697 746T701 781T723 806H743Q746 805 752 803T765 797T778 791T787 786Q787 782 787 775T788 759T788 742T789 732Q789 644 743 595T611 545Q578 545 554 558T512 591T478 634T447 677T413 710T369 724Q337
724 324 712T305 680T300 638T297 593T285 554T252 528L229 549Q229 552 228 561T226 581L224 604Q223 616 223 622Z" />
<glyph unicode="&#xf6;" glyph-name="odieresis" horiz-adv-x="514" d="M20 203Q20 265 49 318T125 410T232 471T353 493Q387 493 413 471T458 418T485 351T495 290Q495 234 468 182T398 89T301 23T193 -2Q145 -2 112 14T59 58T30 123T20 203ZM105 193Q105 167
109 148T125 114T156 93T203 85Q240 85 277 105T343 157T391 227T409 301Q409 317 406 336T396 371T376 398T343 409Q325 409 301 397T250 366T198 323T151 275T118 229T105 193ZM440 921Q485 921 485 874Q474 845 458 835T426 828T400 843T387 870T398 899T440
921ZM667 921Q712 921 712 874Q700 845 684 835T653 828T626 843T614 870T624 899T667 921Z" />
<glyph unicode="&#xf7;" glyph-name="divide" horiz-adv-x="401" d="M143 116Q143 148 162 165T209 190T267 198T321 199Q321 171 313 146T290 103T251 73T198 61Q167 61 155 73T143 116ZM57 438Q57 454 69 468T98 492T134 509T166 516Q195 516 203 499T211 455Q211
436 203 423T182 400T150 387T112 382Q108 382 107 383Q104 383 102 384Q99 385 93 391T79 403T67 417T59 427Q58 429 58 432Q57 435 57 438ZM281 557Q281 560 282 568T283 578Q308 578 347 581T428 587T508 589T570 586Q588 586 595 582T602 554Q572 534 536 526T462
515T390 513T326 514Q299 512 290 525T281 557Z" />
<glyph unicode="&#xf8;" glyph-name="oslash" horiz-adv-x="514" d="M118 -42L124 -17Q127 -5 130 7Q121 10 112 14Q79 31 59 58T30 123T20 203Q20 265 49 318T125 410T232 471Q274 486 316 491Q346 528 379 548Q418 571 462 560Q447 506 427 458Q445 440 458
418Q476 386 485 351T495 290Q495 234 468 182T398 89T301 22Q257 3 215 -1Q210 -21 206 -42Q202 -71 188 -75T156 -76Q142 -72 132 -66T118 -42ZM277 105Q314 126 343 157T391 227T409 301Q409 317 406 336T396 371L391 380Q385 368 380 356Q355 310 330 264T280
168Q262 131 246 92Q262 97 277 105ZM105 193Q105 167 109 148T125 113Q135 102 150 94Q157 121 168 161Q183 211 202 267Q219 313 239 359Q218 343 197 323Q172 299 151 275T118 229T105 193Z" />
<glyph unicode="&#xf9;" glyph-name="ugrave" horiz-adv-x="514" d="M20 408Q20 414 20 429T21 462T21 493T22 514Q29 526 38 537T58 553T81 555T107 535V527V514Q106 509 103 491T96 450T89 410T85 386Q85 367 89 339T100 279T119 217T147 162T182 121T228 105Q260
105 284 122T327 166T356 227T375 295T385 362T388 418Q388 442 385 463T376 506T368 547T364 589Q364 608 377 616T408 624Q429 624 442 612T462 580T472 537T475 488T474 443T473 408Q473 374 468 331T451 243T420 153T375 75T314 19T236 -2Q191 -2 157 19T100
76T60 157T36 247T24 334T20 408ZM163 799Q167 819 176 824T196 826T221 810T249 781T276 747T299 713Q300 712 303 707T310 699Q321 686 321 673T314 650T295 640T271 651L163 799Z" />
<glyph unicode="&#xfa;" glyph-name="uacute" horiz-adv-x="514" d="M20 408Q20 414 20 429T21 462T21 493T22 514Q29 526 38 537T58 553T81 555T107 535V527V514Q106 509 103 491T96 450T89 410T85 386Q85 367 89 339T100 279T119 217T147 162T182 121T228 105Q260
105 284 122T327 166T356 227T375 295T385 362T388 418Q388 442 385 463T376 506T368 547T364 589Q364 608 377 616T408 624Q429 624 442 612T462 580T472 537T475 488T474 443T473 408Q473 374 468 331T451 243T420 153T375 75T314 19T236 -2Q191 -2 157 19T100
76T60 157T36 247T24 334T20 408ZM354 819L246 659Q234 645 222 647T204 658T197 682T207 711Q210 714 213 719T218 727Q228 743 241 763T268 800T295 831T321 849T341 848T354 819Z" />
<glyph unicode="&#xfb;" glyph-name="ucircumflex" horiz-adv-x="514" d="M20 408Q20 414 20 429T21 462T21 493T22 514Q29 526 38 537T58 553T81 555T107 535V527V514Q106 509 103 491T96 450T89 410T85 386Q85 367 89 339T100 279T119 217T147 162T182 121T228
105Q260 105 284 122T327 166T356 227T375 295T385 362T388 418Q388 442 385 463T376 506T368 547T364 589Q364 608 377 616T408 624Q429 624 442 612T462 580T472 537T475 488T474 443T473 408Q473 374 468 331T451 243T420 153T375 75T314 19T236 -2Q191 -2 157
19T100 76T60 157T36 247T24 334T20 408ZM225 982Q245 971 266 950T308 903T350 847T390 790T425 740T453 705Q452 703 447 697T435 685T421 671T410 661Q407 661 406 661Q403 660 400 660Q396 660 393 661Q390 661 389 661Q359 681 343 708T313 760T281 802T230
819Q209 768 197 736T177 686T162 661T144 652T113 653T61 655Q61 674 67 703T85 765T112 833T146 898T184 950T225 982Z" />
<glyph unicode="&#xfc;" glyph-name="udieresis" horiz-adv-x="514" d="M20 408Q20 414 20 429T21 462T21 493T22 514Q29 526 38 537T58 553T81 555T107 535V527V514Q106 509 103 491T96 450T89 410T85 386Q85 367 89 339T100 279T119 217T147 162T182 121T228
105Q260 105 284 122T327 166T356 227T375 295T385 362T388 418Q388 442 385 463T376 506T368 547T364 589Q364 608 377 616T408 624Q429 624 442 612T462 580T472 537T475 488T474 443T473 408Q473 374 468 331T451 243T420 153T375 75T314 19T236 -2Q191 -2 157
19T100 76T60 157T36 247T24 334T20 408ZM440 785Q485 785 485 738Q474 709 458 699T426 692T400 707T387 734T398 763T440 785ZM667 785Q712 785 712 738Q700 709 684 699T653 692T626 707T614 734T624 763T667 785Z" />
<glyph unicode="&#xfd;" glyph-name="yacute" horiz-adv-x="493" d="M3 517Q3 526 3 535T7 553T17 566T37 571Q38 571 39 571T43 571Q46 570 48 570Q67 544 81 504T108 418T136 326T175 242T234 183T321 164Q344 164 351 189T358 253T357 339T356 428T371 503T415
546Q428 520 436 465T449 337T453 180T449 12T437 -149T419 -284T396 -375T367 -404Q346 -384 335 -352T319 -281T315 -199T318 -111T324 -25T328 52Q292 49 255 63T181 106T113 178T56 273T17 387T3 517ZM371 796L263 636Q251 622 239 624T221 635T214 659T224
688Q227 691 230 696T235 704Q245 720 258 740T285 777T312 808T338 826T358 825T371 796Z" />
<glyph unicode="&#xfe;" glyph-name="thorn" horiz-adv-x="472" d="M20 369Q20 382 20 409T19 469T18 540T17 610T17 667T20 700Q22 724 31 739T51 756T75 747T100 704Q103 697 102 681T99 645T95 603T93 562T97 532T111 520Q132 531 163 538T230 546T300 542T363
518T411 472T433 400Q433 346 410 299T351 210T273 133T193 65Q191 61 190 49T188 32Q188 -1 194 -13T208 -35T222 -61T229 -118Q229 -141 218 -146T176 -152Q150 -141 130 -104T93 -14T66 97T46 211T31 307T20 369ZM105 360Q105 345 107 317T115 260T135 212T171
191Q202 191 233 212T289 265T329 333T345 400Q345 425 333 439T303 462T263 473T223 476Q166 476 136 446T105 360Z" />
<glyph unicode="&#xff;" glyph-name="ydieresis" horiz-adv-x="493" d="M3 517Q3 526 3 535T7 553T17 566T37 571Q38 571 39 571T43 571Q46 570 48 570Q67 544 81 504T108 418T136 326T175 242T234 183T321 164Q344 164 351 189T358 253T357 339T356 428T371 503T415
546Q428 520 436 465T449 337T453 180T449 12T437 -149T419 -284T396 -375T367 -404Q346 -384 335 -352T319 -281T315 -199T318 -111T324 -25T328 52Q292 49 255 63T181 106T113 178T56 273T17 387T3 517ZM430 785Q475 785 475 738Q464 709 448 699T416 692T390
707T377 734T388 763T430 785ZM657 785Q702 785 702 738Q690 709 674 699T643 692T616 707T604 734T614 763T657 785Z" />
<glyph unicode="&#x2013;" glyph-name="endash" horiz-adv-x="420" d="M76 325Q76 328 77 336T78 346Q103 346 142 349T223 355T303 357T365 354Q383 354 390 350T397 322Q367 302 331 294T257 283T185 281T121 282Q94 280 85 293T76 325Z" />
<glyph unicode="&#x2014;" glyph-name="emdash" horiz-adv-x="619" d="M76 325Q76 328 77 336T78 346Q94 346 132 347T217 349T317 351T417 352T500 351T553 346Q571 346 578 342T585 315Q565 301 528 294T446 284T352 280T257 279T176 281T121 282Q94 280 85
293T76 325Z" />
<glyph unicode="&#x2018;" glyph-name="quoteleft" horiz-adv-x="150" d="M22 664Q22 667 24 673T29 686T36 699T42 707Q44 707 47 708Q49 708 50 708T53 709Q72 709 86 696T111 664T125 625T130 589Q130 579 127 562T118 529T101 503T75 491Q58 491 49 513T33
565T24 623T22 664Z" />
<glyph unicode="&#x2019;" glyph-name="quoteright" horiz-adv-x="150" d="M22 664Q22 667 24 673T29 686T36 699T42 707Q44 707 47 708Q49 708 50 708T53 709Q72 709 86 696T111 664T125 625T130 589Q130 579 127 562T118 529T101 503T75 491Q58 491 49 513T33
565T24 623T22 664Z" />
<glyph unicode="&#x201a;" glyph-name="quotesinglbase" horiz-adv-x="150" d="M23 156Q23 158 25 164T31 177T38 190T44 199Q46 199 49 200Q50 200 52 200T55 201Q74 201 88 188T112 156T127 116T132 81Q132 69 129 53T119 20T102 -6T76 -17Q60 -17 50 5T34 57T26
114T23 156Z" />
<glyph unicode="&#x201c;" glyph-name="quotedblleft" horiz-adv-x="364" d="M20 729Q20 736 20 754T21 793T21 832T22 858Q23 860 31 868T42 879Q44 879 47 880Q49 880 50 880T53 881Q54 881 56 881T59 880Q62 879 65 879Q66 878 69 876T75 870T82 863T85 858Q81
809 91 766T116 685T142 612T154 546Q154 535 151 522T141 497T123 478T95 470Q72 470 57 486T33 527T22 584T19 643T19 695T20 729ZM193 796Q193 807 197 818T207 839T224 853T246 859Q259 859 270 837T290 782T304 709T314 636T321 579T323 555Q323 512 276 512Q259
512 246 530T224 577T208 640T199 706T194 762T193 796Z" />
<glyph unicode="&#x201d;" glyph-name="quotedblright" horiz-adv-x="386" d="M-2 536Q-2 561 9 580T32 620T56 663T67 712Q67 735 65 752T56 785T36 817T0 857Q6 875 18 878T43 881Q66 881 85 863T120 820T143 766T152 718Q152 695 144 657T119 583T79 520T22
493Q13 493 9 498T2 510T-1 524T-2 536ZM212 554Q212 578 219 599T235 641T250 684T257 729Q257 756 246 777T221 820T196 863T184 913Q224 913 253 897T303 855T334 794T345 721Q345 697 341 662T327 595T297 538T246 514Q228 514 220 527T212 554Z" />
<glyph unicode="&#x201e;" glyph-name="quotedblbase" horiz-adv-x="364" d="M51 210Q51 217 51 235T52 274T52 313T53 339Q55 342 63 350T75 360Q76 360 79 361Q81 361 83 361T85 362Q86 362 88 362T92 361Q94 360 97 360Q100 358 108 350T118 339Q113 290 123
247T148 166T174 94T186 28Q186 16 183 3T173 -22T155 -41T128 -49Q104 -49 89 -33T66 9T54 65T50 124T50 176T51 210ZM225 276Q225 288 228 299T239 319T256 335T278 341Q292 341 302 319T322 263T337 190T347 118T353 61T355 37Q355 13 343 4T309 -6Q292 -6 279
12T256 59T241 121T232 187T227 243T225 276Z" />
<glyph unicode="&#x2022;" glyph-name="bullet" horiz-adv-x="320" d="M71 272Q71 293 86 312T121 346T164 369T202 377Q220 377 231 371T248 354T256 328T258 296Q258 269 248 250T222 219T184 202T139 196H135Q133 196 131 197L126 199Q121 201 113 208T97 225T83
243T73 256Q72 259 72 263Q71 265 71 267V272Z" />
<glyph unicode="&#x2039;" glyph-name="guilsinglleft" horiz-adv-x="428" d="M20 257Q20 290 40 323T93 387T168 446T253 495T338 528T411 540Q411 511 397 487T358 442T305 402T247 363T192 323T150 278Q149 275 148 274Q148 271 148 268Q148 265 148 262Q149
259 150 257Q152 256 159 247T171 236Q176 232 194 221T237 194T289 161T341 128T383 101T408 85Q410 84 418 76T428 65Q428 62 429 59Q429 58 429 56T430 53Q430 52 430 51T429 48Q428 45 428 43Q426 39 419 31T406 17T393 5T385 0Q369 0 336 12T262 46T179 94T101
150T43 207T20 257Z" />
<glyph unicode="&#x203a;" glyph-name="guilsinglright" horiz-adv-x="450" d="M85 43Q85 59 99 85T135 140T182 201T232 261T274 311T300 343Q300 345 301 348T302 354L301 359Q300 361 300 364Q298 368 290 376T278 386Q272 390 254 401T212 428T161 461T109
493T67 520T42 535Q27 545 22 556T16 585Q43 585 86 577T178 554T275 519T363 476T427 426T452 375Q452 373 451 370T450 364L423 331Q405 310 382 282T334 224T285 166T242 117T214 85Q199 68 190 56T174 36T157 24T130 20Q126 20 119 20T104 23T91 29T85 43Z"
/>
</font>
</defs>
</svg>
